<?xml version="1.0" standalone="no"?>
<!DOCTYPE svg PUBLIC "-//W3C//DTD SVG 1.1//EN" "http://www.w3.org/Graphics/SVG/1.1/DTD/svg11.dtd" >
<svg xmlns="http://www.w3.org/2000/svg" xmlns:xlink="http://www.w3.org/1999/xlink" version="1.1">
<metadata>
Created by FontForge 20190801 at Thu Jun 22 13:01:58 2023
 By root
Copyright 2010 The Bangers Project Authors (https://github.com/googlefonts/bangers)
</metadata>
<defs>
<font id="Bangers-Regular" horiz-adv-x="493" >
  <font-face 
    font-family="Bangers"
    font-weight="400"
    font-stretch="normal"
    units-per-em="1000"
    panose-1="0 0 0 0 0 0 0 0 0 0"
    ascent="800"
    descent="-200"
    x-height="707"
    cap-height="725"
    bbox="-150 -356 1188 1392"
    underline-thickness="0"
    underline-position="0"
    unicode-range="U+000D-2265"
  />
<missing-glyph horiz-adv-x="664" 
d="M42 -123q11 79 30.5 184t44 224t50.5 239q14 65 26.5 132t26.5 135l483 51q-6 -47 -18.5 -115.5t-27.5 -145.5t-30.5 -152t-28.5 -136.5t-20 -97.5q-13 -65 -26 -132t-27 -135zM219 20q10 1 32 1.5t47 1t47 0.5h32l25 108q9 37 22.5 97t29.5 129t31 136.5t26 122t15 83.5
q-10 -1 -32 -1.5t-47 -1t-47 -0.5h-32l-25 -108q-8 -36 -22 -95t-29.5 -128.5t-30.5 -137.5t-26.5 -123t-15.5 -84z" />
    <glyph glyph-name=".notdef" horiz-adv-x="664" 
d="M42 -123q11 79 30.5 184t44 224t50.5 239q14 65 26.5 132t26.5 135l483 51q-6 -47 -18.5 -115.5t-27.5 -145.5t-30.5 -152t-28.5 -136.5t-20 -97.5q-13 -65 -26 -132t-27 -135zM219 20q10 1 32 1.5t47 1t47 0.5h32l25 108q9 37 22.5 97t29.5 129t31 136.5t26 122t15 83.5
q-10 -1 -32 -1.5t-47 -1t-47 -0.5h-32l-25 -108q-8 -36 -22 -95t-29.5 -128.5t-30.5 -137.5t-26.5 -123t-15.5 -84z" />
    <glyph glyph-name="A" unicode="A" horiz-adv-x="433" 
d="M259 2q2 17 4 33l4 32l6 56q1 14 2 26t2 22h-87l-40 -144q-22 -3 -52 -6.5t-56 -6.5q-16 -2 -31.5 -4t-31.5 -4l79 262q14 47 32 107t36.5 123t35 118.5t26.5 93.5q68 5 138.5 12t137.5 19q-5 -56 -9.5 -126.5t-8 -145.5t-7.5 -148q-2 -69 -5 -142.5t-6 -150.5l-30 -4
l-30 -4q-25 -4 -55 -9zM214 271q6 0 22.5 1t31.5 2t18 1q0 13 4 53t8 84q2 26 4.5 53.5t5.5 56.5l6 87l-15 -1l-23 -86z" />
    <glyph glyph-name="Aacute" unicode="&#xc1;" horiz-adv-x="433" 
d="M259 2q2 17 4 33l4 32l6 56q1 14 2 26t2 22h-87l-40 -144q-22 -3 -52 -6.5t-56 -6.5q-16 -2 -31.5 -4t-31.5 -4l79 262q14 47 32 107t36.5 123t35 118.5t26.5 93.5q68 5 138.5 12t137.5 19q-5 -56 -9.5 -126.5t-8 -145.5t-7.5 -148q-2 -69 -5 -142.5t-6 -150.5l-30 -4
l-30 -4q-25 -4 -55 -9zM214 271q6 0 22.5 1t31.5 2t18 1q0 13 4 53t8 84q2 26 4.5 53.5t5.5 56.5l6 87l-15 -1l-23 -86zM214 750q-1 5 -1 10.5v9.5v18v16.5t1 16.5v34q34 35 66 65.5t62 57.5t58 55t54 56q5 -68 6 -125q0 -29 2 -58.5t6 -60.5q-29 -12 -61 -24t-66 -24
q-34 -13 -66 -24.5t-61 -22.5z" />
    <glyph glyph-name="Abreve" unicode="&#x102;" horiz-adv-x="433" 
d="M259 2q2 17 4 33l4 32l6 56q1 14 2 26t2 22h-87l-40 -144q-22 -3 -52 -6.5t-56 -6.5q-16 -2 -31.5 -4t-31.5 -4l79 262q14 47 32 107t36.5 123t35 118.5t26.5 93.5q68 5 138.5 12t137.5 19q-5 -56 -9.5 -126.5t-8 -145.5t-7.5 -148q-2 -69 -5 -142.5t-6 -150.5l-30 -4
l-30 -4q-25 -4 -55 -9zM214 271q6 0 22.5 1t31.5 2t18 1q0 13 4 53t8 84q2 26 4.5 53.5t5.5 56.5l6 87l-15 -1l-23 -86zM305 770q-36 0 -65 26.5t-44 67t-13 82.5l22 20q5 5 11 10l12 10q5 5 11 10t13 10q-1 -24 6.5 -49t21.5 -42t33 -17q33 0 49 15q17 14 29.5 38t32.5 65
q13 -11 23 -19.5t18 -16.5l16 -16q-9 -45 -33.5 -90t-60.5 -74.5t-82 -29.5z" />
    <glyph glyph-name="uni1EAE" unicode="&#x1eae;" horiz-adv-x="433" 
d="M259 2q2 17 4 33l4 32l6 56q1 14 2 26t2 22h-87l-40 -144q-22 -3 -52 -6.5t-56 -6.5q-16 -2 -31.5 -4t-31.5 -4l79 262q14 47 32 107t36.5 123t35 118.5t26.5 93.5q68 5 138.5 12t137.5 19q-5 -56 -9.5 -126.5t-8 -145.5t-7.5 -148q-2 -69 -5 -142.5t-6 -150.5l-30 -4
l-30 -4q-25 -4 -55 -9zM214 271q6 0 22.5 1t31.5 2t18 1q0 13 4 53t8 84q2 26 4.5 53.5t5.5 56.5l6 87l-15 -1l-23 -86zM305 770q-36 0 -65 26.5t-44 67t-13 82.5l22 20q5 5 11 10l12 10q5 5 11 10t13 10q-1 -24 6.5 -49t21.5 -42t33 -17q33 0 49 15q17 14 29.5 38t32.5 65
q13 -11 23 -19.5t18 -16.5l16 -16q-9 -45 -33.5 -90t-60.5 -74.5t-82 -29.5zM270 1038q-1 5 -1 10.5v9.5v18v16.5t1 16.5v34q34 35 66 65.5t62 57.5t58 55t54 56q5 -68 6 -125q0 -29 2 -58.5t6 -60.5q-29 -12 -61 -24t-66 -24q-34 -13 -66 -24.5t-61 -22.5z" />
    <glyph glyph-name="uni1EB6" unicode="&#x1eb6;" horiz-adv-x="433" 
d="M259 2q2 17 4 33l4 32l6 56q1 14 2 26t2 22h-87l-40 -144q-22 -3 -52 -6.5t-56 -6.5q-16 -2 -31.5 -4t-31.5 -4l79 262q14 47 32 107t36.5 123t35 118.5t26.5 93.5q68 5 138.5 12t137.5 19q-5 -56 -9.5 -126.5t-8 -145.5t-7.5 -148q-2 -69 -5 -142.5t-6 -150.5l-30 -4
l-30 -4q-25 -4 -55 -9zM214 271q6 0 22.5 1t31.5 2t18 1q0 13 4 53t8 84q2 26 4.5 53.5t5.5 56.5l6 87l-15 -1l-23 -86zM203 -205q-40 0 -60 26t-20 60q0 32 22 60.5t68 28.5q49 0 72.5 -25t23.5 -57q0 -35 -27.5 -64t-78.5 -29zM305 770q-36 0 -65 26.5t-44 67t-13 82.5
l22 20q5 5 11 10l12 10q5 5 11 10t13 10q-1 -24 6.5 -49t21.5 -42t33 -17q33 0 49 15q17 14 29.5 38t32.5 65q13 -11 23 -19.5t18 -16.5l16 -16q-9 -45 -33.5 -90t-60.5 -74.5t-82 -29.5z" />
    <glyph glyph-name="uni1EB0" unicode="&#x1eb0;" horiz-adv-x="433" 
d="M259 2q2 17 4 33l4 32l6 56q1 14 2 26t2 22h-87l-40 -144q-22 -3 -52 -6.5t-56 -6.5q-16 -2 -31.5 -4t-31.5 -4l79 262q14 47 32 107t36.5 123t35 118.5t26.5 93.5q68 5 138.5 12t137.5 19q-5 -56 -9.5 -126.5t-8 -145.5t-7.5 -148q-2 -69 -5 -142.5t-6 -150.5l-30 -4
l-30 -4q-25 -4 -55 -9zM214 271q6 0 22.5 1t31.5 2t18 1q0 13 4 53t8 84q2 26 4.5 53.5t5.5 56.5l6 87l-15 -1l-23 -86zM305 770q-36 0 -65 26.5t-44 67t-13 82.5l22 20q5 5 11 10l12 10q5 5 11 10t13 10q-1 -24 6.5 -49t21.5 -42t33 -17q33 0 49 15q17 14 29.5 38t32.5 65
q13 -11 23 -19.5t18 -16.5l16 -16q-9 -45 -33.5 -90t-60.5 -74.5t-82 -29.5zM387 1040l-50 12t-48 12q-41 9 -84 20.5t-72 20.5q6 29 14 70.5t15 80.5l18 94q20 -21 39.5 -41.5t38.5 -40.5q33 -35 70.5 -75t65.5 -72z" />
    <glyph glyph-name="uni1EB2" unicode="&#x1eb2;" horiz-adv-x="433" 
d="M259 2q2 17 4 33l4 32l6 56q1 14 2 26t2 22h-87l-40 -144q-22 -3 -52 -6.5t-56 -6.5q-16 -2 -31.5 -4t-31.5 -4l79 262q14 47 32 107t36.5 123t35 118.5t26.5 93.5q68 5 138.5 12t137.5 19q-5 -56 -9.5 -126.5t-8 -145.5t-7.5 -148q-2 -69 -5 -142.5t-6 -150.5l-30 -4
l-30 -4q-25 -4 -55 -9zM214 271q6 0 22.5 1t31.5 2t18 1q0 13 4 53t8 84q2 26 4.5 53.5t5.5 56.5l6 87l-15 -1l-23 -86zM305 770q-36 0 -65 26.5t-44 67t-13 82.5l22 20q5 5 11 10l12 10q5 5 11 10t13 10q-1 -24 6.5 -49t21.5 -42t33 -17q33 0 49 15q17 14 29.5 38t32.5 65
q13 -11 23 -19.5t18 -16.5l16 -16q-9 -45 -33.5 -90t-60.5 -74.5t-82 -29.5zM320 1033q0 27 10.5 44.5t23.5 30.5q12 12 22.5 21t10.5 16q0 2 -3 5.5t-8 3.5q-10 0 -24 -10t-29 -22l-16 59q46 36 89 36q10 0 23 -2t20 -7q9 -6 17 -17.5t11 -37.5q0 -22 -10 -37t-25 -26
q-16 -11 -27.5 -22.5t-17.5 -30.5l-19 -2z" />
    <glyph glyph-name="uni1EB4" unicode="&#x1eb4;" horiz-adv-x="433" 
d="M259 2q2 17 4 33l4 32l6 56q1 14 2 26t2 22h-87l-40 -144q-22 -3 -52 -6.5t-56 -6.5q-16 -2 -31.5 -4t-31.5 -4l79 262q14 47 32 107t36.5 123t35 118.5t26.5 93.5q68 5 138.5 12t137.5 19q-5 -56 -9.5 -126.5t-8 -145.5t-7.5 -148q-2 -69 -5 -142.5t-6 -150.5l-30 -4
l-30 -4q-25 -4 -55 -9zM214 271q6 0 22.5 1t31.5 2t18 1q0 13 4 53t8 84q2 26 4.5 53.5t5.5 56.5l6 87l-15 -1l-23 -86zM305 770q-36 0 -65 26.5t-44 67t-13 82.5l22 20q5 5 11 10l12 10q5 5 11 10t13 10q-1 -24 6.5 -49t21.5 -42t33 -17q33 0 49 15q17 14 29.5 38t32.5 65
q13 -11 23 -19.5t18 -16.5l16 -16q-9 -45 -33.5 -90t-60.5 -74.5t-82 -29.5zM224 1055q-13 9 -31 23.5t-23 20.5l12.5 25.5t37.5 62.5q23 35 54.5 62t68.5 27q23 0 41.5 -13t32.5 -30t23.5 -30t13.5 -13q20 0 38 17.5t35 39t30 33.5q6 -4 11.5 -8.5t10.5 -8.5t9.5 -7.5
t8.5 -6.5t7.5 -6t6.5 -7q-21 -49 -48 -87q-20 -31 -54 -58.5t-72 -27.5q-24 0 -37 10.5t-22 23.5t-20 23.5t-32 10.5q-19 0 -37.5 -14t-35 -32t-29.5 -30z" />
    <glyph glyph-name="Acircumflex" unicode="&#xc2;" horiz-adv-x="433" 
d="M259 2q2 17 4 33l4 32l6 56q1 14 2 26t2 22h-87l-40 -144q-22 -3 -52 -6.5t-56 -6.5q-16 -2 -31.5 -4t-31.5 -4l79 262q14 47 32 107t36.5 123t35 118.5t26.5 93.5q68 5 138.5 12t137.5 19q-5 -56 -9.5 -126.5t-8 -145.5t-7.5 -148q-2 -69 -5 -142.5t-6 -150.5l-30 -4
l-30 -4q-25 -4 -55 -9zM214 271q6 0 22.5 1t31.5 2t18 1q0 13 4 53t8 84q2 26 4.5 53.5t5.5 56.5l6 87l-15 -1l-23 -86zM223 750q-13 11 -23 20.5t-16 17.5q-4 5 -8 9t-7 8q14 20 28.5 40.5t29.5 39.5q25 33 54.5 69t55.5 62q20 -3 33.5 -4.5t21.5 -0.5q15 1 17 -1
q4 -13 8.5 -29t9.5 -33l18 -66q5 -19 11 -37t11 -37l-24 -20q-5 -4 -10.5 -8.5t-12.5 -9.5l-25 -19l-61 118q-20 -18 -42 -41.5t-40 -44.5t-29 -33z" />
    <glyph glyph-name="uni1EA4" unicode="&#x1ea4;" horiz-adv-x="433" 
d="M259 2q2 17 4 33l4 32l6 56q1 14 2 26t2 22h-87l-40 -144q-22 -3 -52 -6.5t-56 -6.5q-16 -2 -31.5 -4t-31.5 -4l79 262q14 47 32 107t36.5 123t35 118.5t26.5 93.5q68 5 138.5 12t137.5 19q-5 -56 -9.5 -126.5t-8 -145.5t-7.5 -148q-2 -69 -5 -142.5t-6 -150.5l-30 -4
l-30 -4q-25 -4 -55 -9zM214 271q6 0 22.5 1t31.5 2t18 1q0 13 4 53t8 84q2 26 4.5 53.5t5.5 56.5l6 87l-15 -1l-23 -86zM223 750q-13 11 -23 20.5t-16 17.5q-4 5 -8 9t-7 8q14 20 28.5 40.5t29.5 39.5q25 33 54.5 69t55.5 62q20 -3 33.5 -4.5t21.5 -0.5q15 1 17 -1
q4 -13 8.5 -29t9.5 -33l18 -66q5 -19 11 -37t11 -37l-24 -20q-5 -4 -10.5 -8.5t-12.5 -9.5l-25 -19l-61 118q-20 -18 -42 -41.5t-40 -44.5t-29 -33zM259 1045q-1 5 -1 10.5v9.5v18v16.5t1 16.5v34q34 35 66 65.5t62 57.5t58 55t54 56q5 -68 6 -125q0 -29 2 -58.5t6 -60.5
q-29 -12 -61 -24t-66 -24q-34 -13 -66 -24.5t-61 -22.5z" />
    <glyph glyph-name="uni1EAC" unicode="&#x1eac;" horiz-adv-x="433" 
d="M259 2q2 17 4 33l4 32l6 56q1 14 2 26t2 22h-87l-40 -144q-22 -3 -52 -6.5t-56 -6.5q-16 -2 -31.5 -4t-31.5 -4l79 262q14 47 32 107t36.5 123t35 118.5t26.5 93.5q68 5 138.5 12t137.5 19q-5 -56 -9.5 -126.5t-8 -145.5t-7.5 -148q-2 -69 -5 -142.5t-6 -150.5l-30 -4
l-30 -4q-25 -4 -55 -9zM214 271q6 0 22.5 1t31.5 2t18 1q0 13 4 53t8 84q2 26 4.5 53.5t5.5 56.5l6 87l-15 -1l-23 -86zM223 750q-13 11 -23 20.5t-16 17.5q-4 5 -8 9t-7 8q14 20 28.5 40.5t29.5 39.5q25 33 54.5 69t55.5 62q20 -3 33.5 -4.5t21.5 -0.5q15 1 17 -1
q4 -13 8.5 -29t9.5 -33l18 -66q5 -19 11 -37t11 -37l-24 -20q-5 -4 -10.5 -8.5t-12.5 -9.5l-25 -19l-61 118q-20 -18 -42 -41.5t-40 -44.5t-29 -33zM203 -205q-40 0 -60 26t-20 60q0 32 22 60.5t68 28.5q49 0 72.5 -25t23.5 -57q0 -35 -27.5 -64t-78.5 -29z" />
    <glyph glyph-name="uni1EA6" unicode="&#x1ea6;" horiz-adv-x="433" 
d="M259 2q2 17 4 33l4 32l6 56q1 14 2 26t2 22h-87l-40 -144q-22 -3 -52 -6.5t-56 -6.5q-16 -2 -31.5 -4t-31.5 -4l79 262q14 47 32 107t36.5 123t35 118.5t26.5 93.5q68 5 138.5 12t137.5 19q-5 -56 -9.5 -126.5t-8 -145.5t-7.5 -148q-2 -69 -5 -142.5t-6 -150.5l-30 -4
l-30 -4q-25 -4 -55 -9zM214 271q6 0 22.5 1t31.5 2t18 1q0 13 4 53t8 84q2 26 4.5 53.5t5.5 56.5l6 87l-15 -1l-23 -86zM223 750q-13 11 -23 20.5t-16 17.5q-4 5 -8 9t-7 8q14 20 28.5 40.5t29.5 39.5q25 33 54.5 69t55.5 62q20 -3 33.5 -4.5t21.5 -0.5q15 1 17 -1
q4 -13 8.5 -29t9.5 -33l18 -66q5 -19 11 -37t11 -37l-24 -20q-5 -4 -10.5 -8.5t-12.5 -9.5l-25 -19l-61 118q-20 -18 -42 -41.5t-40 -44.5t-29 -33zM376 1047l-50 12t-48 12q-41 9 -84 20.5t-72 20.5q6 29 14 70.5t15 80.5l18 94q20 -21 39.5 -41.5t38.5 -40.5
q33 -35 70.5 -75t65.5 -72z" />
    <glyph glyph-name="uni1EA8" unicode="&#x1ea8;" horiz-adv-x="433" 
d="M259 2q2 17 4 33l4 32l6 56q1 14 2 26t2 22h-87l-40 -144q-22 -3 -52 -6.5t-56 -6.5q-16 -2 -31.5 -4t-31.5 -4l79 262q14 47 32 107t36.5 123t35 118.5t26.5 93.5q68 5 138.5 12t137.5 19q-5 -56 -9.5 -126.5t-8 -145.5t-7.5 -148q-2 -69 -5 -142.5t-6 -150.5l-30 -4
l-30 -4q-25 -4 -55 -9zM214 271q6 0 22.5 1t31.5 2t18 1q0 13 4 53t8 84q2 26 4.5 53.5t5.5 56.5l6 87l-15 -1l-23 -86zM223 750q-13 11 -23 20.5t-16 17.5q-4 5 -8 9t-7 8q14 20 28.5 40.5t29.5 39.5q25 33 54.5 69t55.5 62q20 -3 33.5 -4.5t21.5 -0.5q15 1 17 -1
q4 -13 8.5 -29t9.5 -33l18 -66q5 -19 11 -37t11 -37l-24 -20q-5 -4 -10.5 -8.5t-12.5 -9.5l-25 -19l-61 118q-20 -18 -42 -41.5t-40 -44.5t-29 -33zM309 1040q0 27 10.5 44.5t23.5 30.5q12 12 22.5 21t10.5 16q0 2 -3 5.5t-8 3.5q-10 0 -24 -10t-29 -22l-16 59q46 36 89 36
q10 0 23 -2t20 -7q9 -6 17 -17.5t11 -37.5q0 -22 -10 -37t-25 -26q-16 -11 -27.5 -22.5t-17.5 -30.5l-19 -2z" />
    <glyph glyph-name="uni1EAA" unicode="&#x1eaa;" horiz-adv-x="433" 
d="M259 2q2 17 4 33l4 32l6 56q1 14 2 26t2 22h-87l-40 -144q-22 -3 -52 -6.5t-56 -6.5q-16 -2 -31.5 -4t-31.5 -4l79 262q14 47 32 107t36.5 123t35 118.5t26.5 93.5q68 5 138.5 12t137.5 19q-5 -56 -9.5 -126.5t-8 -145.5t-7.5 -148q-2 -69 -5 -142.5t-6 -150.5l-30 -4
l-30 -4q-25 -4 -55 -9zM214 271q6 0 22.5 1t31.5 2t18 1q0 13 4 53t8 84q2 26 4.5 53.5t5.5 56.5l6 87l-15 -1l-23 -86zM223 750q-13 11 -23 20.5t-16 17.5q-4 5 -8 9t-7 8q14 20 28.5 40.5t29.5 39.5q25 33 54.5 69t55.5 62q20 -3 33.5 -4.5t21.5 -0.5q15 1 17 -1
q4 -13 8.5 -29t9.5 -33l18 -66q5 -19 11 -37t11 -37l-24 -20q-5 -4 -10.5 -8.5t-12.5 -9.5l-25 -19l-61 118q-20 -18 -42 -41.5t-40 -44.5t-29 -33zM213 1062q-13 9 -31 23.5t-23 20.5l12.5 25.5t37.5 62.5q23 35 54.5 62t68.5 27q23 0 41.5 -13t32.5 -30t23.5 -30t13.5 -13
q20 0 38 17.5t35 39t30 33.5q6 -4 11.5 -8.5t10.5 -8.5t9.5 -7.5t8.5 -6.5t7.5 -6t6.5 -7q-21 -49 -48 -87q-20 -31 -54 -58.5t-72 -27.5q-24 0 -37 10.5t-22 23.5t-20 23.5t-32 10.5q-19 0 -37.5 -14t-35 -32t-29.5 -30z" />
    <glyph glyph-name="uni0200" unicode="&#x200;" horiz-adv-x="433" 
d="M259 2q2 17 4 33l4 32l6 56q1 14 2 26t2 22h-87l-40 -144q-22 -3 -52 -6.5t-56 -6.5q-16 -2 -31.5 -4t-31.5 -4l79 262q14 47 32 107t36.5 123t35 118.5t26.5 93.5q68 5 138.5 12t137.5 19q-5 -56 -9.5 -126.5t-8 -145.5t-7.5 -148q-2 -69 -5 -142.5t-6 -150.5l-30 -4
l-30 -4q-25 -4 -55 -9zM214 271q6 0 22.5 1t31.5 2t18 1q0 13 4 53t8 84q2 26 4.5 53.5t5.5 56.5l6 87l-15 -1l-23 -86zM257 732l-50 12t-48 12q-41 9 -84 20.5t-72 20.5q6 29 14 70.5t15 80.5l18 94q20 -21 39.5 -41.5t38.5 -40.5q33 -35 70.5 -75t65.5 -72zM546 707
l-50 12t-48 12q-41 9 -84 20.5t-72 20.5q6 29 14 70.5t15 80.5l18 94q20 -21 39.5 -41.5t38.5 -40.5q33 -35 70.5 -75t65.5 -72z" />
    <glyph glyph-name="Adieresis" unicode="&#xc4;" horiz-adv-x="433" 
d="M259 2q2 17 4 33l4 32l6 56q1 14 2 26t2 22h-87l-40 -144q-22 -3 -52 -6.5t-56 -6.5q-16 -2 -31.5 -4t-31.5 -4l79 262q14 47 32 107t36.5 123t35 118.5t26.5 93.5q68 5 138.5 12t137.5 19q-5 -56 -9.5 -126.5t-8 -145.5t-7.5 -148q-2 -69 -5 -142.5t-6 -150.5l-30 -4
l-30 -4q-25 -4 -55 -9zM214 271q6 0 22.5 1t31.5 2t18 1q0 13 4 53t8 84q2 26 4.5 53.5t5.5 56.5l6 87l-15 -1l-23 -86zM424 814q-40 0 -60 26.5t-20 59.5q0 35 23.5 62t67.5 27q48 0 72 -25t24 -56q0 -34 -27.5 -64t-79.5 -30zM192 814q-40 0 -60 26.5t-20 59.5
q0 34 22.5 61.5t67.5 27.5q49 0 72.5 -25t23.5 -56q0 -39 -29.5 -66.5t-76.5 -27.5z" />
    <glyph glyph-name="uni1EA0" unicode="&#x1ea0;" horiz-adv-x="433" 
d="M259 2q2 17 4 33l4 32l6 56q1 14 2 26t2 22h-87l-40 -144q-22 -3 -52 -6.5t-56 -6.5q-16 -2 -31.5 -4t-31.5 -4l79 262q14 47 32 107t36.5 123t35 118.5t26.5 93.5q68 5 138.5 12t137.5 19q-5 -56 -9.5 -126.5t-8 -145.5t-7.5 -148q-2 -69 -5 -142.5t-6 -150.5l-30 -4
l-30 -4q-25 -4 -55 -9zM214 271q6 0 22.5 1t31.5 2t18 1q0 13 4 53t8 84q2 26 4.5 53.5t5.5 56.5l6 87l-15 -1l-23 -86zM203 -205q-40 0 -60 26t-20 60q0 32 22 60.5t68 28.5q49 0 72.5 -25t23.5 -57q0 -35 -27.5 -64t-78.5 -29z" />
    <glyph glyph-name="Agrave" unicode="&#xc0;" horiz-adv-x="433" 
d="M259 2q2 17 4 33l4 32l6 56q1 14 2 26t2 22h-87l-40 -144q-22 -3 -52 -6.5t-56 -6.5q-16 -2 -31.5 -4t-31.5 -4l79 262q14 47 32 107t36.5 123t35 118.5t26.5 93.5q68 5 138.5 12t137.5 19q-5 -56 -9.5 -126.5t-8 -145.5t-7.5 -148q-2 -69 -5 -142.5t-6 -150.5l-30 -4
l-30 -4q-25 -4 -55 -9zM214 271q6 0 22.5 1t31.5 2t18 1q0 13 4 53t8 84q2 26 4.5 53.5t5.5 56.5l6 87l-15 -1l-23 -86zM331 752l-50 12t-48 12q-41 9 -84 20.5t-72 20.5q6 29 14 70.5t15 80.5l18 94q20 -21 39.5 -41.5t38.5 -40.5q33 -35 70.5 -75t65.5 -72z" />
    <glyph glyph-name="uni1EA2" unicode="&#x1ea2;" horiz-adv-x="433" 
d="M259 2q2 17 4 33l4 32l6 56q1 14 2 26t2 22h-87l-40 -144q-22 -3 -52 -6.5t-56 -6.5q-16 -2 -31.5 -4t-31.5 -4l79 262q14 47 32 107t36.5 123t35 118.5t26.5 93.5q68 5 138.5 12t137.5 19q-5 -56 -9.5 -126.5t-8 -145.5t-7.5 -148q-2 -69 -5 -142.5t-6 -150.5l-30 -4
l-30 -4q-25 -4 -55 -9zM214 271q6 0 22.5 1t31.5 2t18 1q0 13 4 53t8 84q2 26 4.5 53.5t5.5 56.5l6 87l-15 -1l-23 -86zM264 745q0 27 10.5 44.5t23.5 30.5q12 12 22.5 21t10.5 16q0 2 -3 5.5t-8 3.5q-10 0 -24 -10t-29 -22l-16 59q46 36 89 36q10 0 23 -2t20 -7
q9 -6 17 -17.5t11 -37.5q0 -22 -10 -37t-25 -26q-16 -11 -27.5 -22.5t-17.5 -30.5l-19 -2z" />
    <glyph glyph-name="uni0202" unicode="&#x202;" horiz-adv-x="433" 
d="M259 2q2 17 4 33l4 32l6 56q1 14 2 26t2 22h-87l-40 -144q-22 -3 -52 -6.5t-56 -6.5q-16 -2 -31.5 -4t-31.5 -4l79 262q14 47 32 107t36.5 123t35 118.5t26.5 93.5q68 5 138.5 12t137.5 19q-5 -56 -9.5 -126.5t-8 -145.5t-7.5 -148q-2 -69 -5 -142.5t-6 -150.5l-30 -4
l-30 -4q-25 -4 -55 -9zM214 271q6 0 22.5 1t31.5 2t18 1q0 13 4 53t8 84q2 26 4.5 53.5t5.5 56.5l6 87l-15 -1l-23 -86zM318 977q37 0 65.5 -26.5t44 -66.5t12.5 -83l-22 -20q-5 -4 -11 -9t-11 -10q-6 -5 -12 -10.5t-13 -10.5q1 25 -6.5 49.5t-21.5 41.5t-33 17
q-31 0 -48 -14q-16 -15 -29.5 -39t-33.5 -65q-13 11 -23 19.5t-18 16.5l-16 16q10 46 34 90.5t60 74t82 29.5z" />
    <glyph glyph-name="Amacron" unicode="&#x100;" horiz-adv-x="433" 
d="M259 2q2 17 4 33l4 32l6 56q1 14 2 26t2 22h-87l-40 -144q-22 -3 -52 -6.5t-56 -6.5q-16 -2 -31.5 -4t-31.5 -4l79 262q14 47 32 107t36.5 123t35 118.5t26.5 93.5q68 5 138.5 12t137.5 19q-5 -56 -9.5 -126.5t-8 -145.5t-7.5 -148q-2 -69 -5 -142.5t-6 -150.5l-30 -4
l-30 -4q-25 -4 -55 -9zM214 271q6 0 22.5 1t31.5 2t18 1q0 13 4 53t8 84q2 26 4.5 53.5t5.5 56.5l6 87l-15 -1l-23 -86zM103 765q-5 17 -6 45t-1 54v40v9.5t1 8.5l374 32l16 -162l-151 -9q-50 -3 -88.5 -6t-73 -5.5t-71.5 -6.5z" />
    <glyph glyph-name="Aogonek" unicode="&#x104;" horiz-adv-x="433" 
d="M259 2q2 17 4 33l4 32l6 56q1 14 2 26t2 22h-87l-40 -144q-22 -3 -52 -6.5t-56 -6.5q-16 -2 -31.5 -4t-31.5 -4l79 262q14 47 32 107t36.5 123t35 118.5t26.5 93.5q68 5 138.5 12t137.5 19q-5 -56 -9.5 -126.5t-8 -145.5t-7.5 -148q-2 -69 -5 -142.5t-6 -150.5l-30 -4
l-30 -4q-25 -4 -55 -9zM214 271q6 0 22.5 1t31.5 2t18 1q0 13 4 53t8 84q2 26 4.5 53.5t5.5 56.5l6 87l-15 -1l-23 -86zM382 -134q-58 0 -96.5 28t-38.5 69q0 39 40 78q2 0 17 3t43 6q-2 -9 -3 -16.5t-1 -13.5q0 -25 14.5 -41t35.5 -16q28 0 53 28l20 -88q-16 -19 -38.5 -28
t-45.5 -9z" />
    <glyph glyph-name="Aring" unicode="&#xc5;" horiz-adv-x="433" 
d="M259 2q2 17 4 33l4 32l6 56q1 14 2 26t2 22h-87l-40 -144q-22 -3 -52 -6.5t-56 -6.5q-16 -2 -31.5 -4t-31.5 -4l79 262q14 47 32 107t36.5 123t35 118.5t26.5 93.5q68 5 138.5 12t137.5 19q-5 -56 -9.5 -126.5t-8 -145.5t-7.5 -148q-2 -69 -5 -142.5t-6 -150.5l-30 -4
l-30 -4q-25 -4 -55 -9zM214 271q6 0 22.5 1t31.5 2t18 1q0 13 4 53t8 84q2 26 4.5 53.5t5.5 56.5l6 87l-15 -1l-23 -86zM290 758q-48 0 -75 33t-27 78q0 46 29.5 80.5t86.5 34.5q53 0 82.5 -30.5t29.5 -74.5q0 -32 -16 -60t-44.5 -44.5t-65.5 -16.5zM302 821q26 0 39 16.5
t13 33.5t-11.5 30.5t-35.5 13.5q-25 0 -36.5 -15t-11.5 -33q0 -17 11.5 -31.5t31.5 -14.5z" />
    <glyph glyph-name="Aringacute" unicode="&#x1fa;" horiz-adv-x="433" 
d="M259 2q2 17 4 33l4 32l6 56q1 14 2 26t2 22h-87l-40 -144q-22 -3 -52 -6.5t-56 -6.5q-16 -2 -31.5 -4t-31.5 -4l79 262q14 47 32 107t36.5 123t35 118.5t26.5 93.5q68 5 138.5 12t137.5 19q-5 -56 -9.5 -126.5t-8 -145.5t-7.5 -148q-2 -69 -5 -142.5t-6 -150.5l-30 -4
l-30 -4q-25 -4 -55 -9zM214 271q6 0 22.5 1t31.5 2t18 1q0 13 4 53t8 84q2 26 4.5 53.5t5.5 56.5l6 87l-15 -1l-23 -86zM290 758q-48 0 -75 33t-27 78q0 46 29.5 80.5t86.5 34.5q53 0 82.5 -30.5t29.5 -74.5q0 -32 -16 -60t-44.5 -44.5t-65.5 -16.5zM302 821q26 0 39 16.5
t13 33.5t-11.5 30.5t-35.5 13.5q-25 0 -36.5 -15t-11.5 -33q0 -17 11.5 -31.5t31.5 -14.5zM224 1013q-1 5 -1 10.5v9.5v18v16.5t1 16.5v34q34 35 66 65.5t62 57.5t58 55t54 56q5 -68 6 -125q0 -29 2 -58.5t6 -60.5q-29 -12 -61 -24t-66 -24q-34 -13 -66 -24.5t-61 -22.5z
" />
    <glyph glyph-name="Atilde" unicode="&#xc3;" horiz-adv-x="433" 
d="M259 2q2 17 4 33l4 32l6 56q1 14 2 26t2 22h-87l-40 -144q-22 -3 -52 -6.5t-56 -6.5q-16 -2 -31.5 -4t-31.5 -4l79 262q14 47 32 107t36.5 123t35 118.5t26.5 93.5q68 5 138.5 12t137.5 19q-5 -56 -9.5 -126.5t-8 -145.5t-7.5 -148q-2 -69 -5 -142.5t-6 -150.5l-30 -4
l-30 -4q-25 -4 -55 -9zM214 271q6 0 22.5 1t31.5 2t18 1q0 13 4 53t8 84q2 26 4.5 53.5t5.5 56.5l6 87l-15 -1l-23 -86zM168 767q-13 9 -31 23.5t-23 20.5l12.5 25.5t37.5 62.5q23 35 54.5 62t68.5 27q23 0 41.5 -13t32.5 -30t23.5 -30t13.5 -13q20 0 38 17.5t35 39t30 33.5
q6 -4 11.5 -8.5t10.5 -8.5t9.5 -7.5t8.5 -6.5t7.5 -6t6.5 -7q-21 -49 -48 -87q-20 -31 -54 -58.5t-72 -27.5q-24 0 -37 10.5t-22 23.5t-20 23.5t-32 10.5q-19 0 -37.5 -14t-35 -32t-29.5 -30z" />
    <glyph glyph-name="AE" unicode="&#xc6;" horiz-adv-x="516" 
d="M246 -1v3h-2q11 49 20 95t13 74h-73l-52 -144q-22 -3 -53.5 -6.5t-59.5 -6.5q-16 -2 -33.5 -4t-34.5 -4q26 67 51.5 132.5t50.5 129.5q20 50 43.5 111t47 123t43.5 116.5t33 91.5l365 20l-39 -121q-9 2 -26 3t-40 1l-25 -176h26q5 0 11 0.5t13 0.5h13t11 1
q-2 -14 -3.5 -27.5t-3.5 -27.5l-9 -55l-72 -5l-26 -183l84 6l-10 -114zM236 271q4 0 17 0.5t26 1.5t16 2q1 4 4.5 27t9.5 56t12 65l35 186l-10 -1l-33 -86z" />
    <glyph glyph-name="AEacute" unicode="&#x1fc;" horiz-adv-x="516" 
d="M246 -1v3h-2q11 49 20 95t13 74h-73l-52 -144q-22 -3 -53.5 -6.5t-59.5 -6.5q-16 -2 -33.5 -4t-34.5 -4q26 67 51.5 132.5t50.5 129.5q20 50 43.5 111t47 123t43.5 116.5t33 91.5l365 20l-39 -121q-9 2 -26 3t-40 1l-25 -176h26q5 0 11 0.5t13 0.5h13t11 1
q-2 -14 -3.5 -27.5t-3.5 -27.5l-9 -55l-72 -5l-26 -183l84 6l-10 -114zM236 271q4 0 17 0.5t26 1.5t16 2q1 4 4.5 27t9.5 56t12 65l35 186l-10 -1l-33 -86zM381 747q-1 5 -1 10.5v9.5v18v16.5t1 16.5v34q34 35 66 65.5t62 57.5t58 55t54 56q5 -68 6 -125q0 -29 2 -58.5
t6 -60.5q-29 -12 -61 -24t-66 -24q-34 -13 -66 -24.5t-61 -22.5z" />
    <glyph glyph-name="B" unicode="B" horiz-adv-x="428" 
d="M68 -4q-37 0 -69 6q48 175 76.5 352.5t54.5 357.5q52 11 108 19.5t116 8.5q33 0 70 -11.5t62.5 -41t25.5 -83.5q0 -50 -21 -92t-53 -72t-66 -43q14 -7 33 -25t33 -48t14 -73q0 -60 -35.5 -108.5t-94.5 -80.5q-57 -32 -123 -49t-131 -17zM246 479q31 6 59 16t45.5 23
t17.5 28q0 19 -15 30t-36 16t-39 5h-10q-7 -40 -13 -69.5t-9 -48.5zM195 198q20 2 44 7t46 15.5t36.5 28t14.5 42.5q0 24 -16 38t-38.5 20.5t-42.5 6.5h-8q-5 0 -8 -1q-6 -37 -14 -78t-14 -79z" />
    <glyph glyph-name="C" unicode="C" horiz-adv-x="414" 
d="M182 -2q-63 0 -103 59t-40 162q0 94 26 185.5t73 164.5t111.5 117.5t142.5 44.5q49 0 84 -38t35 -102v-12v-7t-1 -7l-131 -35q-12 25 -28 25q-24 0 -50.5 -39t-50.5 -93q-16 -36 -28.5 -74t-19.5 -71t-7 -54q0 -31 9 -45q7 -13 22 -13t33 14.5t33.5 36.5t20.5 44l114 -46
q-49 -112 -116.5 -164.5t-128.5 -52.5z" />
    <glyph glyph-name="Cacute" unicode="&#x106;" horiz-adv-x="414" 
d="M182 -2q-63 0 -103 59t-40 162q0 94 26 185.5t73 164.5t111.5 117.5t142.5 44.5q49 0 84 -38t35 -102v-12v-7t-1 -7l-131 -35q-12 25 -28 25q-24 0 -50.5 -39t-50.5 -93q-16 -36 -28.5 -74t-19.5 -71t-7 -54q0 -31 9 -45q7 -13 22 -13t33 14.5t33.5 36.5t20.5 44l114 -46
q-49 -112 -116.5 -164.5t-128.5 -52.5zM314 760q-1 5 -1 10.5v9.5v18v16.5t1 16.5v34q34 35 66 65.5t62 57.5t58 55t54 56q5 -68 6 -125q0 -29 2 -58.5t6 -60.5q-29 -12 -61 -24t-66 -24q-34 -13 -66 -24.5t-61 -22.5z" />
    <glyph glyph-name="Ccaron" unicode="&#x10c;" horiz-adv-x="414" 
d="M182 -2q-63 0 -103 59t-40 162q0 94 26 185.5t73 164.5t111.5 117.5t142.5 44.5q49 0 84 -38t35 -102v-12v-7t-1 -7l-131 -35q-12 25 -28 25q-24 0 -50.5 -39t-50.5 -93q-16 -36 -28.5 -74t-19.5 -71t-7 -54q0 -31 9 -45q7 -13 22 -13t33 14.5t33.5 36.5t20.5 44l114 -46
q-49 -112 -116.5 -164.5t-128.5 -52.5zM383 766q-13 1 -24 1.5t-18 0.5h-16q-4 -1 -10 -1q-4 0 -4 1q-4 13 -9.5 28.5t-10.5 32.5q-6 17 -12 33t-11 32l-12 36t-13 37l22 21q5 5 11 10l12 10l24 20l67 -115q17 19 39.5 46t41.5 50t24 29q13 -11 23 -20t18 -17l16 -15
q-13 -22 -26.5 -42.5t-27.5 -40.5q-23 -34 -51 -72t-53 -65z" />
    <glyph glyph-name="Ccedilla" unicode="&#xc7;" horiz-adv-x="414" 
d="M182 -2q-63 0 -103 59t-40 162q0 94 26 185.5t73 164.5t111.5 117.5t142.5 44.5q49 0 84 -38t35 -102v-12v-7t-1 -7l-131 -35q-12 25 -28 25q-24 0 -50.5 -39t-50.5 -93q-16 -36 -28.5 -74t-19.5 -71t-7 -54q0 -31 9 -45q7 -13 22 -13t33 14.5t33.5 36.5t20.5 44l114 -46
q-49 -112 -116.5 -164.5t-128.5 -52.5zM182 -165q-24 0 -46.5 9t-37.5 28l19 88q25 -28 53 -28q22 0 36.5 16t14.5 41q0 6 -1.5 13.5t-3.5 16.5q28 -3 43 -6t18 -3q40 -39 40 -78q0 -28 -18.5 -50t-49 -34.5t-67.5 -12.5z" />
    <glyph glyph-name="Ccircumflex" unicode="&#x108;" horiz-adv-x="414" 
d="M182 -2q-63 0 -103 59t-40 162q0 94 26 185.5t73 164.5t111.5 117.5t142.5 44.5q49 0 84 -38t35 -102v-12v-7t-1 -7l-131 -35q-12 25 -28 25q-24 0 -50.5 -39t-50.5 -93q-16 -36 -28.5 -74t-19.5 -71t-7 -54q0 -31 9 -45q7 -13 22 -13t33 14.5t33.5 36.5t20.5 44l114 -46
q-49 -112 -116.5 -164.5t-128.5 -52.5zM323 760q-13 11 -23 20.5t-16 17.5q-4 5 -8 9t-7 8q14 20 28.5 40.5t29.5 39.5q25 33 54.5 69t55.5 62q20 -3 33.5 -4.5t21.5 -0.5q15 1 17 -1q4 -13 8.5 -29t9.5 -33l18 -66q5 -19 11 -37t11 -37l-24 -20q-5 -4 -10.5 -8.5
t-12.5 -9.5l-25 -19l-61 118q-20 -18 -42 -41.5t-40 -44.5t-29 -33z" />
    <glyph glyph-name="Cdotaccent" unicode="&#x10a;" horiz-adv-x="414" 
d="M182 -2q-63 0 -103 59t-40 162q0 94 26 185.5t73 164.5t111.5 117.5t142.5 44.5q49 0 84 -38t35 -102v-12v-7t-1 -7l-131 -35q-12 25 -28 25q-24 0 -50.5 -39t-50.5 -93q-16 -36 -28.5 -74t-19.5 -71t-7 -54q0 -31 9 -45q7 -13 22 -13t33 14.5t33.5 36.5t20.5 44l114 -46
q-49 -112 -116.5 -164.5t-128.5 -52.5zM415 788q-40 0 -60 26t-20 60q0 32 22 60.5t68 28.5q49 0 72.5 -25t23.5 -57q0 -35 -27.5 -64t-78.5 -29z" />
    <glyph glyph-name="D" unicode="D" horiz-adv-x="441" 
d="M60 -5q-14 0 -28 1.5t-28 3.5l53 269q10 55 21.5 116.5t22.5 122t19.5 112.5t13.5 88q43 8 87 15t90 7q74 0 117 -30.5t62 -80t19 -108.5q0 -53 -15 -111.5t-42.5 -116t-65.5 -108.5q-59 -79 -143.5 -129.5t-182.5 -50.5zM179 121q35 23 66.5 70t59.5 113q25 61 39 115.5
t14 90.5q0 37 -20.5 58t-64.5 21q-16 -86 -32.5 -159t-32 -147t-29.5 -162z" />
    <glyph glyph-name="uni01C4" unicode="&#x1c4;" horiz-adv-x="872" 
d="M60 -5q-14 0 -28 1.5t-28 3.5l53 269q10 55 21.5 116.5t22.5 122t19.5 112.5t13.5 88q43 8 87 15t90 7q74 0 117 -30.5t62 -80t19 -108.5q0 -53 -15 -111.5t-42.5 -116t-65.5 -108.5q-59 -79 -143.5 -129.5t-182.5 -50.5zM179 121q35 23 66.5 70t59.5 113q25 61 39 115.5
t14 90.5q0 37 -20.5 58t-64.5 21q-16 -86 -32.5 -159t-32 -147t-29.5 -162zM449 9v146l285 387q-29 0 -52.5 -2.5t-54 -7t-82.5 -11.5l19 157l409 29l-26 -138l-273 -388q14 0 46 1.5t72.5 4t79.5 5.5v-152q-12 0 -60 -2t-132 -7q-76 -5 -137.5 -10.5t-93.5 -11.5zM815 756
q-13 1 -24 1.5t-18 0.5h-16q-4 -1 -10 -1q-4 0 -4 1q-4 13 -9.5 28.5t-10.5 32.5q-6 17 -12 33t-11 32l-12 36t-13 37l22 21q5 5 11 10l12 10l24 20l67 -115q17 19 39.5 46t41.5 50t24 29q13 -11 23 -20t18 -17l16 -15q-13 -22 -26.5 -42.5t-27.5 -40.5q-23 -34 -51 -72
t-53 -65z" />
    <glyph glyph-name="Dcaron" unicode="&#x10e;" horiz-adv-x="441" 
d="M60 -5q-14 0 -28 1.5t-28 3.5l53 269q10 55 21.5 116.5t22.5 122t19.5 112.5t13.5 88q43 8 87 15t90 7q74 0 117 -30.5t62 -80t19 -108.5q0 -53 -15 -111.5t-42.5 -116t-65.5 -108.5q-59 -79 -143.5 -129.5t-182.5 -50.5zM179 121q35 23 66.5 70t59.5 113q25 61 39 115.5
t14 90.5q0 37 -20.5 58t-64.5 21q-16 -86 -32.5 -159t-32 -147t-29.5 -162zM304 756q-13 1 -24 1.5t-18 0.5h-16q-4 -1 -10 -1q-4 0 -4 1q-4 13 -9.5 28.5t-10.5 32.5q-6 17 -12 33t-11 32l-12 36t-13 37l22 21q5 5 11 10l12 10l24 20l67 -115q17 19 39.5 46t41.5 50t24 29
q13 -11 23 -20t18 -17l16 -15q-13 -22 -26.5 -42.5t-27.5 -40.5q-23 -34 -51 -72t-53 -65z" />
    <glyph glyph-name="Dcroat" unicode="&#x110;" horiz-adv-x="445" 
d="M136 2q-32 0 -62.5 9.5t-60.5 30.5l17 86q4 20 9 43t10 49q11 51 21 111q-4 -1 -7 -1h-6h-23l33 106q2 -1 7 -1h16q14 74 26 144.5t20 128.5q43 8 87 15t90 7q68 0 109.5 -31t60 -85t18.5 -123q0 -83 -26 -167.5t-73 -156.5q-48 -73 -116.5 -119t-149.5 -46zM171 121
q35 21 67.5 63.5t58 95.5t40 108t14.5 102q0 51 -21.5 84.5t-63.5 33.5q-10 -45 -18.5 -87t-16.5 -86h10.5t10.5 1h18h8t8 1l-24 -108h-15h-7.5t-7.5 1h-19q-5 -24 -9.5 -48.5t-9.5 -50.5q-5 -25 -10.5 -53t-12.5 -57z" />
    <glyph glyph-name="uni01C5" unicode="&#x1c5;" horiz-adv-x="872" 
d="M60 -5q-14 0 -28 1.5t-28 3.5l53 269q10 55 21.5 116.5t22.5 122t19.5 112.5t13.5 88q43 8 87 15t90 7q74 0 117 -30.5t62 -80t19 -108.5q0 -53 -15 -111.5t-42.5 -116t-65.5 -108.5q-59 -79 -143.5 -129.5t-182.5 -50.5zM179 121q35 23 66.5 70t59.5 113q25 61 39 115.5
t14 90.5q0 37 -20.5 58t-64.5 21q-16 -86 -32.5 -159t-32 -147t-29.5 -162zM450 9v146l284 387q-22 0 -56 -3.5t-64.5 -8t-44.5 -7.5l-24 -2l19 157l409 29l-26 -138l-273 -388q14 0 46.5 1.5t74 4t80.5 5.5v-152q-12 0 -61.5 -2t-133.5 -7q-76 -5 -137 -10.5t-93 -11.5z
M836 756q-13 1 -24 1.5t-18 0.5h-16q-4 -1 -10 -1q-4 0 -4 1q-4 13 -9.5 28.5t-10.5 32.5q-6 17 -12 33t-11 32l-12 36t-13 37l22 21q5 5 11 10l12 10l24 20l67 -115q17 19 39.5 46t41.5 50t24 29q13 -11 23 -20t18 -17l16 -15q-13 -22 -26.5 -42.5t-27.5 -40.5
q-23 -34 -51 -72t-53 -65z" />
    <glyph glyph-name="Eth" unicode="&#xd0;" horiz-adv-x="445" 
d="M136 2q-32 0 -62.5 9.5t-60.5 30.5l17 86q4 20 9 43t10 49q11 51 21 111q-4 -1 -7 -1h-6h-23l33 106q2 -1 7 -1h16q14 74 26 144.5t20 128.5q43 8 87 15t90 7q68 0 109.5 -31t60 -85t18.5 -123q0 -83 -26 -167.5t-73 -156.5q-48 -73 -116.5 -119t-149.5 -46zM171 121
q35 21 67.5 63.5t58 95.5t40 108t14.5 102q0 51 -21.5 84.5t-63.5 33.5q-10 -45 -18.5 -87t-16.5 -86h10.5t10.5 1h18h8t8 1l-24 -108h-15h-7.5t-7.5 1h-19q-5 -24 -9.5 -48.5t-9.5 -50.5q-5 -25 -10.5 -53t-12.5 -57z" />
    <glyph glyph-name="E" unicode="E" horiz-adv-x="341" 
d="M8 -1l131 711l316 27q-7 -22 -12 -45q-5 -19 -9.5 -39.5t-7.5 -36.5q-13 -1 -37 -1.5t-49 -1t-43 -0.5h-19l-35 -179l58 3q11 1 22.5 1h22.5h20t14 1q-2 -14 -3.5 -27.5t-3.5 -27.5l-9 -55q-5 -1 -13 -1h-19q-11 -1 -23 -1t-23 -1q-13 -1 -27 -1t-30 -1l-34 -184l146 23
l-10 -114z" />
    <glyph glyph-name="Eacute" unicode="&#xc9;" horiz-adv-x="341" 
d="M8 -1l131 711l316 27q-7 -22 -12 -45q-5 -19 -9.5 -39.5t-7.5 -36.5q-13 -1 -37 -1.5t-49 -1t-43 -0.5h-19l-35 -179l58 3q11 1 22.5 1h22.5h20t14 1q-2 -14 -3.5 -27.5t-3.5 -27.5l-9 -55q-5 -1 -13 -1h-19q-11 -1 -23 -1t-23 -1q-13 -1 -27 -1t-30 -1l-34 -184l146 23
l-10 -114zM187 779q-1 5 -1 10.5v9.5v18v16.5t1 16.5v34q34 35 66 65.5t62 57.5t58 55t54 56q5 -68 6 -125q0 -29 2 -58.5t6 -60.5q-29 -12 -61 -24t-66 -24q-34 -13 -66 -24.5t-61 -22.5z" />
    <glyph glyph-name="Ebreve" unicode="&#x114;" horiz-adv-x="341" 
d="M8 -1l131 711l316 27q-7 -22 -12 -45q-5 -19 -9.5 -39.5t-7.5 -36.5q-13 -1 -37 -1.5t-49 -1t-43 -0.5h-19l-35 -179l58 3q11 1 22.5 1h22.5h20t14 1q-2 -14 -3.5 -27.5t-3.5 -27.5l-9 -55q-5 -1 -13 -1h-19q-11 -1 -23 -1t-23 -1q-13 -1 -27 -1t-30 -1l-34 -184l146 23
l-10 -114zM278 799q-36 0 -65 26.5t-44 67t-13 82.5l22 20q5 5 11 10l12 10q5 5 11 10t13 10q-1 -24 6.5 -49t21.5 -42t33 -17q33 0 49 15q17 14 29.5 38t32.5 65q13 -11 23 -19.5t18 -16.5l16 -16q-9 -45 -33.5 -90t-60.5 -74.5t-82 -29.5z" />
    <glyph glyph-name="Ecaron" unicode="&#x11a;" horiz-adv-x="341" 
d="M8 -1l131 711l316 27q-7 -22 -12 -45q-5 -19 -9.5 -39.5t-7.5 -36.5q-13 -1 -37 -1.5t-49 -1t-43 -0.5h-19l-35 -179l58 3q11 1 22.5 1h22.5h20t14 1q-2 -14 -3.5 -27.5t-3.5 -27.5l-9 -55q-5 -1 -13 -1h-19q-11 -1 -23 -1t-23 -1q-13 -1 -27 -1t-30 -1l-34 -184l146 23
l-10 -114zM256 785q-13 1 -24 1.5t-18 0.5h-16q-4 -1 -10 -1q-4 0 -4 1q-4 13 -9.5 28.5t-10.5 32.5q-6 17 -12 33t-11 32l-12 36t-13 37l22 21q5 5 11 10l12 10l24 20l67 -115q17 19 39.5 46t41.5 50t24 29q13 -11 23 -20t18 -17l16 -15q-13 -22 -26.5 -42.5t-27.5 -40.5
q-23 -34 -51 -72t-53 -65z" />
    <glyph glyph-name="Ecircumflex" unicode="&#xca;" horiz-adv-x="341" 
d="M8 -1l131 711l316 27q-7 -22 -12 -45q-5 -19 -9.5 -39.5t-7.5 -36.5q-13 -1 -37 -1.5t-49 -1t-43 -0.5h-19l-35 -179l58 3q11 1 22.5 1h22.5h20t14 1q-2 -14 -3.5 -27.5t-3.5 -27.5l-9 -55q-5 -1 -13 -1h-19q-11 -1 -23 -1t-23 -1q-13 -1 -27 -1t-30 -1l-34 -184l146 23
l-10 -114zM196 779q-13 11 -23 20.5t-16 17.5q-4 5 -8 9t-7 8q14 20 28.5 40.5t29.5 39.5q25 33 54.5 69t55.5 62q20 -3 33.5 -4.5t21.5 -0.5q15 1 17 -1q4 -13 8.5 -29t9.5 -33l18 -66q5 -19 11 -37t11 -37l-24 -20q-5 -4 -10.5 -8.5t-12.5 -9.5l-25 -19l-61 118
q-20 -18 -42 -41.5t-40 -44.5t-29 -33z" />
    <glyph glyph-name="uni1EBE" unicode="&#x1ebe;" horiz-adv-x="341" 
d="M8 -1l131 711l316 27q-7 -22 -12 -45q-5 -19 -9.5 -39.5t-7.5 -36.5q-13 -1 -37 -1.5t-49 -1t-43 -0.5h-19l-35 -179l58 3q11 1 22.5 1h22.5h20t14 1q-2 -14 -3.5 -27.5t-3.5 -27.5l-9 -55q-5 -1 -13 -1h-19q-11 -1 -23 -1t-23 -1q-13 -1 -27 -1t-30 -1l-34 -184l146 23
l-10 -114zM447 927q-1 4 -1 7v6v33l1 22q22 22 42.5 42t39.5 37q39 35 72 72q2 -22 3 -42t1 -39q0 -36 6 -77q-19 -7 -39.5 -15t-42.5 -16t-42.5 -15.5t-39.5 -14.5zM199 768q-13 11 -23 20.5t-16 17.5q-4 5 -8 9t-7 8q14 20 28.5 40.5t29.5 39.5q25 33 54.5 69t55.5 62
q20 -3 33.5 -4.5t21.5 -0.5q15 1 17 -1q4 -13 8.5 -29t9.5 -33l18 -66q5 -19 11 -37t11 -37l-24 -20q-5 -4 -10.5 -8.5t-12.5 -9.5l-25 -19l-61 118q-20 -18 -42 -41.5t-40 -44.5t-29 -33z" />
    <glyph glyph-name="uni1EC6" unicode="&#x1ec6;" horiz-adv-x="341" 
d="M8 -1l131 711l316 27q-7 -22 -12 -45q-5 -19 -9.5 -39.5t-7.5 -36.5q-13 -1 -37 -1.5t-49 -1t-43 -0.5h-19l-35 -179l58 3q11 1 22.5 1h22.5h20t14 1q-2 -14 -3.5 -27.5t-3.5 -27.5l-9 -55q-5 -1 -13 -1h-19q-11 -1 -23 -1t-23 -1q-13 -1 -27 -1t-30 -1l-34 -184l146 23
l-10 -114zM196 779q-13 11 -23 20.5t-16 17.5q-4 5 -8 9t-7 8q14 20 28.5 40.5t29.5 39.5q25 33 54.5 69t55.5 62q20 -3 33.5 -4.5t21.5 -0.5q15 1 17 -1q4 -13 8.5 -29t9.5 -33l18 -66q5 -19 11 -37t11 -37l-24 -20q-5 -4 -10.5 -8.5t-12.5 -9.5l-25 -19l-61 118
q-20 -18 -42 -41.5t-40 -44.5t-29 -33zM157 -205q-40 0 -60 26t-20 60q0 32 22 60.5t68 28.5q49 0 72.5 -25t23.5 -57q0 -35 -27.5 -64t-78.5 -29z" />
    <glyph glyph-name="uni1EC0" unicode="&#x1ec0;" horiz-adv-x="341" 
d="M8 -1l131 711l316 27q-7 -22 -12 -45q-5 -19 -9.5 -39.5t-7.5 -36.5q-13 -1 -37 -1.5t-49 -1t-43 -0.5h-19l-35 -179l58 3q11 1 22.5 1h22.5h20t14 1q-2 -14 -3.5 -27.5t-3.5 -27.5l-9 -55q-5 -1 -13 -1h-19q-11 -1 -23 -1t-23 -1q-13 -1 -27 -1t-30 -1l-34 -184l146 23
l-10 -114zM220 952q-16 5 -32 8.5t-32 7.5q-27 6 -55 13.5t-47 13.5q4 19 9.5 46.5t9.5 52.5l12 61q13 -13 25.5 -26.5t25.5 -26.5q21 -23 45.5 -49.5t43.5 -47.5zM193 747q-13 11 -23 20.5t-16 17.5q-4 5 -8 9t-7 8q14 20 28.5 40.5t29.5 39.5q25 33 54.5 69t55.5 62
q20 -3 33.5 -4.5t21.5 -0.5q15 1 17 -1q4 -13 8.5 -29t9.5 -33l18 -66q5 -19 11 -37t11 -37l-24 -20q-5 -4 -10.5 -8.5t-12.5 -9.5l-25 -19l-61 118q-20 -18 -42 -41.5t-40 -44.5t-29 -33z" />
    <glyph glyph-name="uni1EC2" unicode="&#x1ec2;" horiz-adv-x="341" 
d="M8 -1l131 711l316 27q-7 -22 -12 -45q-5 -19 -9.5 -39.5t-7.5 -36.5q-13 -1 -37 -1.5t-49 -1t-43 -0.5h-19l-35 -179l58 3q11 1 22.5 1h22.5h20t14 1q-2 -14 -3.5 -27.5t-3.5 -27.5l-9 -55q-5 -1 -13 -1h-19q-11 -1 -23 -1t-23 -1q-13 -1 -27 -1t-30 -1l-34 -184l146 23
l-10 -114zM454 939q0 27 10.5 44.5t23.5 30.5q12 12 22.5 21t10.5 16q0 2 -3 5.5t-8 3.5q-10 0 -24 -10t-29 -22l-16 59q46 36 89 36q10 0 23 -2t20 -7q9 -6 17 -17.5t11 -37.5q0 -22 -10 -37t-25 -26q-16 -11 -27.5 -22.5t-17.5 -30.5l-19 -2zM206 762q-13 11 -23 20.5
t-16 17.5q-4 5 -8 9t-7 8q14 20 28.5 40.5t29.5 39.5q25 33 54.5 69t55.5 62q20 -3 33.5 -4.5t21.5 -0.5q15 1 17 -1q4 -13 8.5 -29t9.5 -33l18 -66q5 -19 11 -37t11 -37l-24 -20q-5 -4 -10.5 -8.5t-12.5 -9.5l-25 -19l-61 118q-20 -18 -42 -41.5t-40 -44.5t-29 -33z" />
    <glyph glyph-name="uni1EC4" unicode="&#x1ec4;" horiz-adv-x="341" 
d="M8 -1l131 711l316 27q-7 -22 -12 -45q-5 -19 -9.5 -39.5t-7.5 -36.5q-13 -1 -37 -1.5t-49 -1t-43 -0.5h-19l-35 -179l58 3q11 1 22.5 1h22.5h20t14 1q-2 -14 -3.5 -27.5t-3.5 -27.5l-9 -55q-5 -1 -13 -1h-19q-11 -1 -23 -1t-23 -1q-13 -1 -27 -1t-30 -1l-34 -184l146 23
l-10 -114zM228 1067q-13 9 -31 23.5t-23 20.5l12.5 25.5t37.5 62.5q23 35 54.5 62t68.5 27q23 0 41.5 -13t32.5 -30t23.5 -30t13.5 -13q20 0 38 17.5t35 39t30 33.5q6 -4 11.5 -8.5t10.5 -8.5t9.5 -7.5t8.5 -6.5t7.5 -6t6.5 -7q-21 -49 -48 -87q-20 -31 -54 -58.5t-72 -27.5
q-24 0 -37 10.5t-22 23.5t-20 23.5t-32 10.5q-19 0 -37.5 -14t-35 -32t-29.5 -30zM198 755q-13 11 -23 20.5t-16 17.5q-4 5 -8 9t-7 8q14 20 28.5 40.5t29.5 39.5q25 33 54.5 69t55.5 62q20 -3 33.5 -4.5t21.5 -0.5q15 1 17 -1q4 -13 8.5 -29t9.5 -33l18 -66q5 -19 11 -37
t11 -37l-24 -20q-5 -4 -10.5 -8.5t-12.5 -9.5l-25 -19l-61 118q-20 -18 -42 -41.5t-40 -44.5t-29 -33z" />
    <glyph glyph-name="uni0204" unicode="&#x204;" horiz-adv-x="341" 
d="M8 -1l131 711l316 27q-7 -22 -12 -45q-5 -19 -9.5 -39.5t-7.5 -36.5q-13 -1 -37 -1.5t-49 -1t-43 -0.5h-19l-35 -179l58 3q11 1 22.5 1h22.5h20t14 1q-2 -14 -3.5 -27.5t-3.5 -27.5l-9 -55q-5 -1 -13 -1h-19q-11 -1 -23 -1t-23 -1q-13 -1 -27 -1t-30 -1l-34 -184l146 23
l-10 -114zM230 761l-50 12t-48 12q-41 9 -84 20.5t-72 20.5q6 29 14 70.5t15 80.5l18 94q20 -21 39.5 -41.5t38.5 -40.5q33 -35 70.5 -75t65.5 -72zM519 736l-50 12t-48 12q-41 9 -84 20.5t-72 20.5q6 29 14 70.5t15 80.5l18 94q20 -21 39.5 -41.5t38.5 -40.5
q33 -35 70.5 -75t65.5 -72z" />
    <glyph glyph-name="Edieresis" unicode="&#xcb;" horiz-adv-x="341" 
d="M8 -1l131 711l316 27q-7 -22 -12 -45q-5 -19 -9.5 -39.5t-7.5 -36.5q-13 -1 -37 -1.5t-49 -1t-43 -0.5h-19l-35 -179l58 3q11 1 22.5 1h22.5h20t14 1q-2 -14 -3.5 -27.5t-3.5 -27.5l-9 -55q-5 -1 -13 -1h-19q-11 -1 -23 -1t-23 -1q-13 -1 -27 -1t-30 -1l-34 -184l146 23
l-10 -114zM397 843q-40 0 -60 26.5t-20 59.5q0 35 23.5 62t67.5 27q48 0 72 -25t24 -56q0 -34 -27.5 -64t-79.5 -30zM165 843q-40 0 -60 26.5t-20 59.5q0 34 22.5 61.5t67.5 27.5q49 0 72.5 -25t23.5 -56q0 -39 -29.5 -66.5t-76.5 -27.5z" />
    <glyph glyph-name="Edotaccent" unicode="&#x116;" horiz-adv-x="341" 
d="M8 -1l131 711l316 27q-7 -22 -12 -45q-5 -19 -9.5 -39.5t-7.5 -36.5q-13 -1 -37 -1.5t-49 -1t-43 -0.5h-19l-35 -179l58 3q11 1 22.5 1h22.5h20t14 1q-2 -14 -3.5 -27.5t-3.5 -27.5l-9 -55q-5 -1 -13 -1h-19q-11 -1 -23 -1t-23 -1q-13 -1 -27 -1t-30 -1l-34 -184l146 23
l-10 -114zM288 807q-40 0 -60 26t-20 60q0 32 22 60.5t68 28.5q49 0 72.5 -25t23.5 -57q0 -35 -27.5 -64t-78.5 -29z" />
    <glyph glyph-name="uni1EB8" unicode="&#x1eb8;" horiz-adv-x="341" 
d="M8 -1l131 711l316 27q-7 -22 -12 -45q-5 -19 -9.5 -39.5t-7.5 -36.5q-13 -1 -37 -1.5t-49 -1t-43 -0.5h-19l-35 -179l58 3q11 1 22.5 1h22.5h20t14 1q-2 -14 -3.5 -27.5t-3.5 -27.5l-9 -55q-5 -1 -13 -1h-19q-11 -1 -23 -1t-23 -1q-13 -1 -27 -1t-30 -1l-34 -184l146 23
l-10 -114zM157 -205q-40 0 -60 26t-20 60q0 32 22 60.5t68 28.5q49 0 72.5 -25t23.5 -57q0 -35 -27.5 -64t-78.5 -29z" />
    <glyph glyph-name="Egrave" unicode="&#xc8;" horiz-adv-x="341" 
d="M8 -1l131 711l316 27q-7 -22 -12 -45q-5 -19 -9.5 -39.5t-7.5 -36.5q-13 -1 -37 -1.5t-49 -1t-43 -0.5h-19l-35 -179l58 3q11 1 22.5 1h22.5h20t14 1q-2 -14 -3.5 -27.5t-3.5 -27.5l-9 -55q-5 -1 -13 -1h-19q-11 -1 -23 -1t-23 -1q-13 -1 -27 -1t-30 -1l-34 -184l146 23
l-10 -114zM304 781l-50 12t-48 12q-41 9 -84 20.5t-72 20.5q6 29 14 70.5t15 80.5l18 94q20 -21 39.5 -41.5t38.5 -40.5q33 -35 70.5 -75t65.5 -72z" />
    <glyph glyph-name="uni1EBA" unicode="&#x1eba;" horiz-adv-x="341" 
d="M8 -1l131 711l316 27q-7 -22 -12 -45q-5 -19 -9.5 -39.5t-7.5 -36.5q-13 -1 -37 -1.5t-49 -1t-43 -0.5h-19l-35 -179l58 3q11 1 22.5 1h22.5h20t14 1q-2 -14 -3.5 -27.5t-3.5 -27.5l-9 -55q-5 -1 -13 -1h-19q-11 -1 -23 -1t-23 -1q-13 -1 -27 -1t-30 -1l-34 -184l146 23
l-10 -114zM237 774q0 27 10.5 44.5t23.5 30.5q12 12 22.5 21t10.5 16q0 2 -3 5.5t-8 3.5q-10 0 -24 -10t-29 -22l-16 59q46 36 89 36q10 0 23 -2t20 -7q9 -6 17 -17.5t11 -37.5q0 -22 -10 -37t-25 -26q-16 -11 -27.5 -22.5t-17.5 -30.5l-19 -2z" />
    <glyph glyph-name="uni0206" unicode="&#x206;" horiz-adv-x="341" 
d="M8 -1l131 711l316 27q-7 -22 -12 -45q-5 -19 -9.5 -39.5t-7.5 -36.5q-13 -1 -37 -1.5t-49 -1t-43 -0.5h-19l-35 -179l58 3q11 1 22.5 1h22.5h20t14 1q-2 -14 -3.5 -27.5t-3.5 -27.5l-9 -55q-5 -1 -13 -1h-19q-11 -1 -23 -1t-23 -1q-13 -1 -27 -1t-30 -1l-34 -184l146 23
l-10 -114zM291 1006q37 0 65.5 -26.5t44 -66.5t12.5 -83l-22 -20q-5 -4 -11 -9t-11 -10q-6 -5 -12 -10.5t-13 -10.5q1 25 -6.5 49.5t-21.5 41.5t-33 17q-31 0 -48 -14q-16 -15 -29.5 -39t-33.5 -65q-13 11 -23 19.5t-18 16.5l-16 16q10 46 34 90.5t60 74t82 29.5z" />
    <glyph glyph-name="Emacron" unicode="&#x112;" horiz-adv-x="341" 
d="M8 -1l131 711l316 27q-7 -22 -12 -45q-5 -19 -9.5 -39.5t-7.5 -36.5q-13 -1 -37 -1.5t-49 -1t-43 -0.5h-19l-35 -179l58 3q11 1 22.5 1h22.5h20t14 1q-2 -14 -3.5 -27.5t-3.5 -27.5l-9 -55q-5 -1 -13 -1h-19q-11 -1 -23 -1t-23 -1q-13 -1 -27 -1t-30 -1l-34 -184l146 23
l-10 -114zM76 794q-5 17 -6 45t-1 54v40v9.5t1 8.5l374 32l16 -162l-151 -9q-50 -3 -88.5 -6t-73 -5.5t-71.5 -6.5z" />
    <glyph glyph-name="Eogonek" unicode="&#x118;" horiz-adv-x="341" 
d="M8 -1l131 711l316 27q-7 -22 -12 -45q-5 -19 -9.5 -39.5t-7.5 -36.5q-13 -1 -37 -1.5t-49 -1t-43 -0.5h-19l-35 -179l58 3q11 1 22.5 1h22.5h20t14 1q-2 -14 -3.5 -27.5t-3.5 -27.5l-9 -55q-5 -1 -13 -1h-19q-11 -1 -23 -1t-23 -1q-13 -1 -27 -1t-30 -1l-34 -184l146 23
l-10 -114zM270 -134q-58 0 -96.5 28t-38.5 69q0 39 40 78q2 0 17 3t43 6q-2 -9 -3 -16.5t-1 -13.5q0 -25 14.5 -41t35.5 -16q28 0 53 28l20 -88q-16 -19 -38.5 -28t-45.5 -9z" />
    <glyph glyph-name="uni1EBC" unicode="&#x1ebc;" horiz-adv-x="341" 
d="M8 -1l131 711l316 27q-7 -22 -12 -45q-5 -19 -9.5 -39.5t-7.5 -36.5q-13 -1 -37 -1.5t-49 -1t-43 -0.5h-19l-35 -179l58 3q11 1 22.5 1h22.5h20t14 1q-2 -14 -3.5 -27.5t-3.5 -27.5l-9 -55q-5 -1 -13 -1h-19q-11 -1 -23 -1t-23 -1q-13 -1 -27 -1t-30 -1l-34 -184l146 23
l-10 -114zM141 796q-13 9 -31 23.5t-23 20.5l12.5 25.5t37.5 62.5q23 35 54.5 62t68.5 27q23 0 41.5 -13t32.5 -30t23.5 -30t13.5 -13q20 0 38 17.5t35 39t30 33.5q6 -4 11.5 -8.5t10.5 -8.5t9.5 -7.5t8.5 -6.5t7.5 -6t6.5 -7q-21 -49 -48 -87q-20 -31 -54 -58.5t-72 -27.5
q-24 0 -37 10.5t-22 23.5t-20 23.5t-32 10.5q-19 0 -37.5 -14t-35 -32t-29.5 -30z" />
    <glyph glyph-name="uni018F" unicode="&#x18f;" horiz-adv-x="585" 
d="M265 513l-107 108q15 40 47 69t70.5 45t71.5 16q66 0 125 -32t95.5 -101t36.5 -182q0 -82 -23.5 -160t-66.5 -140t-102.5 -99t-131.5 -37q-60 0 -106.5 33.5t-72.5 90.5t-28 128q-2 85 35 178h325q-6 68 -29 108t-58 40q-14 0 -32 -11.5t-32 -27t-17 -26.5zM269 145
q42 0 73.5 22.5t52 60t30.5 82.5h-217q-1 -7 -3.5 -25.5t-2.5 -23.5q0 -49 16.5 -82.5t50.5 -33.5z" />
    <glyph glyph-name="F" unicode="F" horiz-adv-x="341" 
d="M4 -1q14 48 27 109.5t24.5 125.5t21.5 119t16 91q11 67 21.5 135.5t20.5 139.5l335 17l-29 -123h-157l-31 -178q16 1 30.5 1h28.5h47h21t16 1q-1 -14 -3 -27.5t-4 -27.5l-9 -54q-21 0 -60.5 1.5t-83.5 2.5l-46 -295q-17 -3 -33.5 -6t-33.5 -7q-28 -5 -61 -12t-58 -13z
" />
    <glyph glyph-name="G" unicode="G" horiz-adv-x="499" 
d="M223 -24q-37 0 -70.5 16t-57.5 49q-25 32 -39 81t-14 115q0 129 37 225t94 160q56 64 120.5 95t120.5 31q54 0 88 -23.5t50 -62.5t16 -87l-137 -26q-9 40 -24 57t-34 17q-22 0 -45.5 -24t-46 -64.5t-40.5 -90.5t-29.5 -103t-13.5 -100q0 -62 18.5 -88.5t47.5 -26.5
q28 0 55.5 18t46 48.5t19.5 68.5l-107 -16l19 99l92 12q38 5 80.5 12t74.5 13q-7 -102 -39.5 -178.5t-80.5 -126.5t-100.5 -75t-100.5 -25z" />
    <glyph glyph-name="Gbreve" unicode="&#x11e;" horiz-adv-x="499" 
d="M223 -24q-37 0 -70.5 16t-57.5 49q-25 32 -39 81t-14 115q0 129 37 225t94 160q56 64 120.5 95t120.5 31q54 0 88 -23.5t50 -62.5t16 -87l-137 -26q-9 40 -24 57t-34 17q-22 0 -45.5 -24t-46 -64.5t-40.5 -90.5t-29.5 -103t-13.5 -100q0 -62 18.5 -88.5t47.5 -26.5
q28 0 55.5 18t46 48.5t19.5 68.5l-107 -16l19 99l92 12q38 5 80.5 12t74.5 13q-7 -102 -39.5 -178.5t-80.5 -126.5t-100.5 -75t-100.5 -25zM392 770q-36 0 -65 26.5t-44 67t-13 82.5l22 20q5 5 11 10l12 10q5 5 11 10t13 10q-1 -24 6.5 -49t21.5 -42t33 -17q33 0 49 15
q17 14 29.5 38t32.5 65q13 -11 23 -19.5t18 -16.5l16 -16q-9 -45 -33.5 -90t-60.5 -74.5t-82 -29.5z" />
    <glyph glyph-name="Gcaron" unicode="&#x1e6;" horiz-adv-x="499" 
d="M223 -24q-37 0 -70.5 16t-57.5 49q-25 32 -39 81t-14 115q0 129 37 225t94 160q56 64 120.5 95t120.5 31q54 0 88 -23.5t50 -62.5t16 -87l-137 -26q-9 40 -24 57t-34 17q-22 0 -45.5 -24t-46 -64.5t-40.5 -90.5t-29.5 -103t-13.5 -100q0 -62 18.5 -88.5t47.5 -26.5
q28 0 55.5 18t46 48.5t19.5 68.5l-107 -16l19 99l92 12q38 5 80.5 12t74.5 13q-7 -102 -39.5 -178.5t-80.5 -126.5t-100.5 -75t-100.5 -25zM370 756q-13 1 -24 1.5t-18 0.5h-16q-4 -1 -10 -1q-4 0 -4 1q-4 13 -9.5 28.5t-10.5 32.5q-6 17 -12 33t-11 32l-12 36t-13 37l22 21
q5 5 11 10l12 10l24 20l67 -115q17 19 39.5 46t41.5 50t24 29q13 -11 23 -20t18 -17l16 -15q-13 -22 -26.5 -42.5t-27.5 -40.5q-23 -34 -51 -72t-53 -65z" />
    <glyph glyph-name="Gcircumflex" unicode="&#x11c;" horiz-adv-x="499" 
d="M223 -24q-37 0 -70.5 16t-57.5 49q-25 32 -39 81t-14 115q0 129 37 225t94 160q56 64 120.5 95t120.5 31q54 0 88 -23.5t50 -62.5t16 -87l-137 -26q-9 40 -24 57t-34 17q-22 0 -45.5 -24t-46 -64.5t-40.5 -90.5t-29.5 -103t-13.5 -100q0 -62 18.5 -88.5t47.5 -26.5
q28 0 55.5 18t46 48.5t19.5 68.5l-107 -16l19 99l92 12q38 5 80.5 12t74.5 13q-7 -102 -39.5 -178.5t-80.5 -126.5t-100.5 -75t-100.5 -25zM310 750q-13 11 -23 20.5t-16 17.5q-4 5 -8 9t-7 8q14 20 28.5 40.5t29.5 39.5q25 33 54.5 69t55.5 62q20 -3 33.5 -4.5t21.5 -0.5
q15 1 17 -1q4 -13 8.5 -29t9.5 -33l18 -66q5 -19 11 -37t11 -37l-24 -20q-5 -4 -10.5 -8.5t-12.5 -9.5l-25 -19l-61 118q-20 -18 -42 -41.5t-40 -44.5t-29 -33z" />
    <glyph glyph-name="uni0122" unicode="&#x122;" horiz-adv-x="499" 
d="M223 -24q-37 0 -70.5 16t-57.5 49q-25 32 -39 81t-14 115q0 129 37 225t94 160q56 64 120.5 95t120.5 31q54 0 88 -23.5t50 -62.5t16 -87l-137 -26q-9 40 -24 57t-34 17q-22 0 -45.5 -24t-46 -64.5t-40.5 -90.5t-29.5 -103t-13.5 -100q0 -62 18.5 -88.5t47.5 -26.5
q28 0 55.5 18t46 48.5t19.5 68.5l-107 -16l19 99l92 12q38 5 80.5 12t74.5 13q-7 -102 -39.5 -178.5t-80.5 -126.5t-100.5 -75t-100.5 -25zM116 -271q10 51 15 82t8 56.5t7 57.5h26q8 -1 5 -1t1 0q30 0 47 0.5t35 1t47 1.5q-7 -34 -12 -55.5t-10.5 -40t-12.5 -42t-19 -60.5
h-137z" />
    <glyph glyph-name="Gdotaccent" unicode="&#x120;" horiz-adv-x="499" 
d="M223 -24q-37 0 -70.5 16t-57.5 49q-25 32 -39 81t-14 115q0 129 37 225t94 160q56 64 120.5 95t120.5 31q54 0 88 -23.5t50 -62.5t16 -87l-137 -26q-9 40 -24 57t-34 17q-22 0 -45.5 -24t-46 -64.5t-40.5 -90.5t-29.5 -103t-13.5 -100q0 -62 18.5 -88.5t47.5 -26.5
q28 0 55.5 18t46 48.5t19.5 68.5l-107 -16l19 99l92 12q38 5 80.5 12t74.5 13q-7 -102 -39.5 -178.5t-80.5 -126.5t-100.5 -75t-100.5 -25zM402 778q-40 0 -60 26t-20 60q0 32 22 60.5t68 28.5q49 0 72.5 -25t23.5 -57q0 -35 -27.5 -64t-78.5 -29z" />
    <glyph glyph-name="H" unicode="H" horiz-adv-x="442" 
d="M9 -2q13 69 25.5 136.5t25.5 134.5q14 83 26.5 156t25 145t24.5 151l162 11q-17 -70 -33.5 -146t-30.5 -148l99 11q7 35 13.5 69.5t11.5 68.5q5 33 12.5 67.5t16.5 69.5q36 6 73 9.5t62 5l25 1.5q-13 -40 -26 -94t-25 -114t-23 -119.5t-20 -110.5q-11 -64 -21 -128.5
t-20 -131.5l-156 -18q7 30 12.5 59.5t10.5 57.5q10 48 20.5 100t16.5 89l-97 -9q-4 -19 -7.5 -41t-8.5 -47t-9.5 -48.5t-8.5 -46.5q-5 -27 -11 -54t-11 -54z" />
    <glyph glyph-name="Hbar" unicode="&#x126;" horiz-adv-x="577" 
d="M78 -2q13 69 25.5 136.5t25.5 134.5q23 124 40 228l-72 -8l20 109l70 8q9 55 18 115l162 11q-6 -26 -12.5 -53.5t-12.5 -55.5l93 10q9 43 21 91q36 6 73 9.5t62 5l25 1.5q-11 -40 -24 -90l63 7l-15 -110l-73 -8q-13 -62 -24.5 -123.5t-20.5 -113.5q-11 -64 -21 -128.5
t-20 -131.5l-156 -18q14 60 24 117q5 24 10 49t10 51t9 48t8 41l-98 -9q-4 -19 -7.5 -41t-8.5 -47q-4 -25 -8.5 -48.5t-9.5 -46.5q-5 -27 -11 -54t-11 -54zM402 449q4 19 7.5 37.5t6.5 36.5l-98 -10q-4 -19 -7.5 -38t-6.5 -37z" />
    <glyph glyph-name="Hcircumflex" unicode="&#x124;" horiz-adv-x="442" 
d="M9 -2q13 69 25.5 136.5t25.5 134.5q14 83 26.5 156t25 145t24.5 151l162 11q-17 -70 -33.5 -146t-30.5 -148l99 11q7 35 13.5 69.5t11.5 68.5q5 33 12.5 67.5t16.5 69.5q36 6 73 9.5t62 5l25 1.5q-13 -40 -26 -94t-25 -114t-23 -119.5t-20 -110.5q-11 -64 -21 -128.5
t-20 -131.5l-156 -18q7 30 12.5 59.5t10.5 57.5q10 48 20.5 100t16.5 89l-97 -9q-4 -19 -7.5 -41t-8.5 -47t-9.5 -48.5t-8.5 -46.5q-5 -27 -11 -54t-11 -54zM280 750q-13 11 -23 20.5t-16 17.5q-4 5 -8 9t-7 8q14 20 28.5 40.5t29.5 39.5q25 33 54.5 69t55.5 62
q20 -3 33.5 -4.5t21.5 -0.5q15 1 17 -1q4 -13 8.5 -29t9.5 -33l18 -66q5 -19 11 -37t11 -37l-24 -20q-5 -4 -10.5 -8.5t-12.5 -9.5l-25 -19l-61 118q-20 -18 -42 -41.5t-40 -44.5t-29 -33z" />
    <glyph glyph-name="I" unicode="I" horiz-adv-x="200" 
d="M-6 1q17 59 33.5 134t32 153.5t29.5 148.5q13 64 25 130t24 133l156 25q-13 -67 -26 -132.5t-26 -130.5q-14 -70 -29 -148t-29 -153.5t-26 -140.5q-18 0 -45 -2.5t-54 -6t-45.5 -6.5t-19.5 -4z" />
    <glyph glyph-name="IJ" unicode="&#x132;" horiz-adv-x="474" 
d="M-6 1q17 59 33.5 134t32 153.5t29.5 148.5q13 64 25 130t24 133l156 25q-13 -67 -26 -132.5t-26 -130.5q-14 -70 -29 -148t-29 -153.5t-26 -140.5q-18 0 -45 -2.5t-54 -6t-45.5 -6.5t-19.5 -4zM300 -1q-28 0 -60.5 12t-71.5 41l69 154q5 -10 19.5 -17.5t31.5 -7.5
q13 0 23 21t16.5 51t10.5 56.5t5 37.5q10 49 19 97t17 97q8 48 18.5 96t21.5 96q45 4 88.5 12.5t87.5 20.5q-15 -51 -31 -115.5t-31 -133.5t-28.5 -134t-23.5 -117q-9 -42 -22 -88.5t-34 -87t-51.5 -66t-73.5 -25.5z" />
    <glyph glyph-name="Iacute" unicode="&#xcd;" horiz-adv-x="200" 
d="M-6 1q17 59 33.5 134t32 153.5t29.5 148.5q13 64 25 130t24 133l156 25q-13 -67 -26 -132.5t-26 -130.5q-14 -70 -29 -148t-29 -153.5t-26 -140.5q-18 0 -45 -2.5t-54 -6t-45.5 -6.5t-19.5 -4zM154 749q-1 5 -1 10.5v9.5v18v16.5t1 16.5v34q34 35 66 65.5t62 57.5t58 55
t54 56q5 -68 6 -125q0 -29 2 -58.5t6 -60.5q-29 -12 -61 -24t-66 -24q-34 -13 -66 -24.5t-61 -22.5z" />
    <glyph glyph-name="Ibreve" unicode="&#x12c;" horiz-adv-x="200" 
d="M-6 1q17 59 33.5 134t32 153.5t29.5 148.5q13 64 25 130t24 133l156 25q-13 -67 -26 -132.5t-26 -130.5q-14 -70 -29 -148t-29 -153.5t-26 -140.5q-18 0 -45 -2.5t-54 -6t-45.5 -6.5t-19.5 -4zM245 769q-36 0 -65 26.5t-44 67t-13 82.5l22 20q5 5 11 10l12 10q5 5 11 10
t13 10q-1 -24 6.5 -49t21.5 -42t33 -17q33 0 49 15q17 14 29.5 38t32.5 65q13 -11 23 -19.5t18 -16.5l16 -16q-9 -45 -33.5 -90t-60.5 -74.5t-82 -29.5z" />
    <glyph glyph-name="Icircumflex" unicode="&#xce;" horiz-adv-x="200" 
d="M-6 1q17 59 33.5 134t32 153.5t29.5 148.5q13 64 25 130t24 133l156 25q-13 -67 -26 -132.5t-26 -130.5q-14 -70 -29 -148t-29 -153.5t-26 -140.5q-18 0 -45 -2.5t-54 -6t-45.5 -6.5t-19.5 -4zM163 749q-13 11 -23 20.5t-16 17.5q-4 5 -8 9t-7 8q14 20 28.5 40.5
t29.5 39.5q25 33 54.5 69t55.5 62q20 -3 33.5 -4.5t21.5 -0.5q15 1 17 -1q4 -13 8.5 -29t9.5 -33l18 -66q5 -19 11 -37t11 -37l-24 -20q-5 -4 -10.5 -8.5t-12.5 -9.5l-25 -19l-61 118q-20 -18 -42 -41.5t-40 -44.5t-29 -33z" />
    <glyph glyph-name="uni0208" unicode="&#x208;" horiz-adv-x="200" 
d="M-6 1q17 59 33.5 134t32 153.5t29.5 148.5q13 64 25 130t24 133l156 25q-13 -67 -26 -132.5t-26 -130.5q-14 -70 -29 -148t-29 -153.5t-26 -140.5q-18 0 -45 -2.5t-54 -6t-45.5 -6.5t-19.5 -4zM197 731l-50 12t-48 12q-41 9 -84 20.5t-72 20.5q6 29 14 70.5t15 80.5
l18 94q20 -21 39.5 -41.5t38.5 -40.5q33 -35 70.5 -75t65.5 -72zM486 706l-50 12t-48 12q-41 9 -84 20.5t-72 20.5q6 29 14 70.5t15 80.5l18 94q20 -21 39.5 -41.5t38.5 -40.5q33 -35 70.5 -75t65.5 -72z" />
    <glyph glyph-name="Idieresis" unicode="&#xcf;" horiz-adv-x="200" 
d="M-6 1q17 59 33.5 134t32 153.5t29.5 148.5q13 64 25 130t24 133l156 25q-13 -67 -26 -132.5t-26 -130.5q-14 -70 -29 -148t-29 -153.5t-26 -140.5q-18 0 -45 -2.5t-54 -6t-45.5 -6.5t-19.5 -4zM364 813q-40 0 -60 26.5t-20 59.5q0 35 23.5 62t67.5 27q48 0 72 -25t24 -56
q0 -34 -27.5 -64t-79.5 -30zM132 813q-40 0 -60 26.5t-20 59.5q0 34 22.5 61.5t67.5 27.5q49 0 72.5 -25t23.5 -56q0 -39 -29.5 -66.5t-76.5 -27.5z" />
    <glyph glyph-name="Idotaccent" unicode="&#x130;" horiz-adv-x="200" 
d="M-6 1q17 59 33.5 134t32 153.5t29.5 148.5q13 64 25 130t24 133l156 25q-13 -67 -26 -132.5t-26 -130.5q-14 -70 -29 -148t-29 -153.5t-26 -140.5q-18 0 -45 -2.5t-54 -6t-45.5 -6.5t-19.5 -4zM255 777q-40 0 -60 26t-20 60q0 32 22 60.5t68 28.5q49 0 72.5 -25t23.5 -57
q0 -35 -27.5 -64t-78.5 -29z" />
    <glyph glyph-name="uni1ECA" unicode="&#x1eca;" horiz-adv-x="200" 
d="M-6 1q17 59 33.5 134t32 153.5t29.5 148.5q13 64 25 130t24 133l156 25q-13 -67 -26 -132.5t-26 -130.5q-14 -70 -29 -148t-29 -153.5t-26 -140.5q-18 0 -45 -2.5t-54 -6t-45.5 -6.5t-19.5 -4zM87 -205q-40 0 -60 26t-20 60q0 32 22 60.5t68 28.5q49 0 72.5 -25t23.5 -57
q0 -35 -27.5 -64t-78.5 -29z" />
    <glyph glyph-name="Igrave" unicode="&#xcc;" horiz-adv-x="200" 
d="M-6 1q17 59 33.5 134t32 153.5t29.5 148.5q13 64 25 130t24 133l156 25q-13 -67 -26 -132.5t-26 -130.5q-14 -70 -29 -148t-29 -153.5t-26 -140.5q-18 0 -45 -2.5t-54 -6t-45.5 -6.5t-19.5 -4zM271 751l-50 12t-48 12q-41 9 -84 20.5t-72 20.5q6 29 14 70.5t15 80.5
l18 94q20 -21 39.5 -41.5t38.5 -40.5q33 -35 70.5 -75t65.5 -72z" />
    <glyph glyph-name="uni1EC8" unicode="&#x1ec8;" horiz-adv-x="200" 
d="M-6 1q17 59 33.5 134t32 153.5t29.5 148.5q13 64 25 130t24 133l156 25q-13 -67 -26 -132.5t-26 -130.5q-14 -70 -29 -148t-29 -153.5t-26 -140.5q-18 0 -45 -2.5t-54 -6t-45.5 -6.5t-19.5 -4zM204 744q0 27 10.5 44.5t23.5 30.5q12 12 22.5 21t10.5 16q0 2 -3 5.5
t-8 3.5q-10 0 -24 -10t-29 -22l-16 59q46 36 89 36q10 0 23 -2t20 -7q9 -6 17 -17.5t11 -37.5q0 -22 -10 -37t-25 -26q-16 -11 -27.5 -22.5t-17.5 -30.5l-19 -2z" />
    <glyph glyph-name="uni020A" unicode="&#x20a;" horiz-adv-x="200" 
d="M-6 1q17 59 33.5 134t32 153.5t29.5 148.5q13 64 25 130t24 133l156 25q-13 -67 -26 -132.5t-26 -130.5q-14 -70 -29 -148t-29 -153.5t-26 -140.5q-18 0 -45 -2.5t-54 -6t-45.5 -6.5t-19.5 -4zM258 976q37 0 65.5 -26.5t44 -66.5t12.5 -83l-22 -20q-5 -4 -11 -9t-11 -10
q-6 -5 -12 -10.5t-13 -10.5q1 25 -6.5 49.5t-21.5 41.5t-33 17q-31 0 -48 -14q-16 -15 -29.5 -39t-33.5 -65q-13 11 -23 19.5t-18 16.5l-16 16q10 46 34 90.5t60 74t82 29.5z" />
    <glyph glyph-name="Imacron" unicode="&#x12a;" horiz-adv-x="200" 
d="M-6 1q17 59 33.5 134t32 153.5t29.5 148.5q13 64 25 130t24 133l156 25q-13 -67 -26 -132.5t-26 -130.5q-14 -70 -29 -148t-29 -153.5t-26 -140.5q-18 0 -45 -2.5t-54 -6t-45.5 -6.5t-19.5 -4zM43 764q-5 17 -6 45t-1 54v40v9.5t1 8.5l374 32l16 -162l-151 -9
q-50 -3 -88.5 -6t-73 -5.5t-71.5 -6.5z" />
    <glyph glyph-name="Iogonek" unicode="&#x12e;" horiz-adv-x="200" 
d="M-6 1q17 59 33.5 134t32 153.5t29.5 148.5q13 64 25 130t24 133l156 25q-13 -67 -26 -132.5t-26 -130.5q-14 -70 -29 -148t-29 -153.5t-26 -140.5q-18 0 -45 -2.5t-54 -6t-45.5 -6.5t-19.5 -4zM149 -134q-58 0 -96.5 28t-38.5 69q0 39 40 78q2 0 17 3t43 6
q-2 -9 -3 -16.5t-1 -13.5q0 -25 14.5 -41t35.5 -16q28 0 53 28l20 -88q-16 -19 -38.5 -28t-45.5 -9z" />
    <glyph glyph-name="Itilde" unicode="&#x128;" horiz-adv-x="200" 
d="M-6 1q17 59 33.5 134t32 153.5t29.5 148.5q13 64 25 130t24 133l156 25q-13 -67 -26 -132.5t-26 -130.5q-14 -70 -29 -148t-29 -153.5t-26 -140.5q-18 0 -45 -2.5t-54 -6t-45.5 -6.5t-19.5 -4zM108 766q-13 9 -31 23.5t-23 20.5l12.5 25.5t37.5 62.5q23 35 54.5 62
t68.5 27q23 0 41.5 -13t32.5 -30t23.5 -30t13.5 -13q20 0 38 17.5t35 39t30 33.5q6 -4 11.5 -8.5t10.5 -8.5t9.5 -7.5t8.5 -6.5t7.5 -6t6.5 -7q-21 -49 -48 -87q-20 -31 -54 -58.5t-72 -27.5q-24 0 -37 10.5t-22 23.5t-20 23.5t-32 10.5q-19 0 -37.5 -14t-35 -32t-29.5 -30z
" />
    <glyph glyph-name="J" unicode="J" horiz-adv-x="279" 
d="M105 -1q-28 0 -60.5 12t-71.5 41l69 154q5 -10 19.5 -17.5t31.5 -7.5q13 0 23 21t16.5 51t10.5 56.5t5 37.5q10 49 19 97t17 97q8 48 18.5 96t21.5 96q45 4 88.5 12.5t87.5 20.5q-15 -51 -31 -115.5t-31 -133.5t-28.5 -134t-23.5 -117q-9 -42 -22 -88.5t-34 -87
t-51.5 -66t-73.5 -25.5z" />
    <glyph glyph-name="Jcircumflex" unicode="&#x134;" horiz-adv-x="279" 
d="M105 -1q-28 0 -60.5 12t-71.5 41l69 154q5 -10 19.5 -17.5t31.5 -7.5q13 0 23 21t16.5 51t10.5 56.5t5 37.5q10 49 19 97t17 97q8 48 18.5 96t21.5 96q45 4 88.5 12.5t87.5 20.5q-15 -51 -31 -115.5t-31 -133.5t-28.5 -134t-23.5 -117q-9 -42 -22 -88.5t-34 -87
t-51.5 -66t-73.5 -25.5zM252 750q-13 11 -23 20.5t-16 17.5q-4 5 -8 9t-7 8q14 20 28.5 40.5t29.5 39.5q25 33 54.5 69t55.5 62q20 -3 33.5 -4.5t21.5 -0.5q15 1 17 -1q4 -13 8.5 -29t9.5 -33l18 -66q5 -19 11 -37t11 -37l-24 -20q-5 -4 -10.5 -8.5t-12.5 -9.5l-25 -19
l-61 118q-20 -18 -42 -41.5t-40 -44.5t-29 -33z" />
    <glyph glyph-name="K" unicode="K" horiz-adv-x="462" 
d="M7 -1q15 70 29 138t27 134q21 119 41 235.5t29 222.5l52 -3q14 -1 27.5 -2t26.5 -2q15 -1 30 -1.5t30 -0.5q-2 -8 -6.5 -32t-9 -48.5t-6.5 -33.5l-18 -99l6 1q29 45 67 104t71 113q50 4 100 9t100 13l-46 -62t-45 -62q-23 -32 -50 -70t-51.5 -74.5t-40.5 -62.5
q11 -50 24 -99t28 -96t30 -95t31 -97q-23 1 -47 1.5t-47 0.5q-29 0 -56 -0.5t-56 -1.5q-4 32 -9 66.5t-10 70.5q-5 35 -10 69.5t-10 66.5l-18 -21q-7 -29 -15 -74q-4 -22 -8.5 -43.5t-8.5 -41.5q-4 -24 -9 -48.5t-10 -50.5z" />
    <glyph glyph-name="uni0136" unicode="&#x136;" horiz-adv-x="462" 
d="M7 -1q15 70 29 138t27 134q21 119 41 235.5t29 222.5l52 -3q14 -1 27.5 -2t26.5 -2q15 -1 30 -1.5t30 -0.5q-2 -8 -6.5 -32t-9 -48.5t-6.5 -33.5l-18 -99l6 1q29 45 67 104t71 113q50 4 100 9t100 13l-46 -62t-45 -62q-23 -32 -50 -70t-51.5 -74.5t-40.5 -62.5
q11 -50 24 -99t28 -96t30 -95t31 -97q-23 1 -47 1.5t-47 0.5q-29 0 -56 -0.5t-56 -1.5q-4 32 -9 66.5t-10 70.5q-5 35 -10 69.5t-10 66.5l-18 -21q-7 -29 -15 -74q-4 -22 -8.5 -43.5t-8.5 -41.5q-4 -24 -9 -48.5t-10 -50.5zM97 -271q10 51 15 82t8 56.5t7 57.5h26q8 -1 5 -1
t1 0q30 0 47 0.5t35 1t47 1.5q-7 -34 -12 -55.5t-10.5 -40t-12.5 -42t-19 -60.5h-137z" />
    <glyph glyph-name="L" unicode="L" horiz-adv-x="302" 
d="M12 -2q11 79 23.5 159t26 154.5t25.5 134.5q13 65 26 132t27 135l175 23l-52 -226q-14 -59 -28.5 -126.5t-26.5 -130.5t-19 -112q25 2 53.5 2.5t50.5 0.5q1 -23 4 -48.5t6.5 -44t3.5 -20.5h-7.5t-7.5 1h-16q-39 0 -86.5 -3.5t-94 -11t-83.5 -19.5z" />
    <glyph glyph-name="uni01C7" unicode="&#x1c7;" horiz-adv-x="581" 
d="M12 -2q11 79 23.5 159t26 154.5t25.5 134.5q13 65 26 132t27 135l175 23l-52 -226q-14 -59 -28.5 -126.5t-26.5 -130.5t-19 -112q25 2 53.5 2.5t50.5 0.5q1 -23 4 -48.5t6.5 -44t3.5 -20.5h-7.5t-7.5 1h-16q-39 0 -86.5 -3.5t-94 -11t-83.5 -19.5zM407 -1q-28 0 -60.5 12
t-71.5 41l69 154q5 -10 19.5 -17.5t31.5 -7.5q13 0 23 21t16.5 51t10.5 56.5t5 37.5q10 49 19 97t17 97q8 48 18.5 96t21.5 96q45 4 88.5 12.5t87.5 20.5q-15 -51 -31 -115.5t-31 -133.5t-28.5 -134t-23.5 -117q-9 -42 -22 -88.5t-34 -87t-51.5 -66t-73.5 -25.5z" />
    <glyph glyph-name="Lacute" unicode="&#x139;" horiz-adv-x="302" 
d="M12 -2q11 79 23.5 159t26 154.5t25.5 134.5q13 65 26 132t27 135l175 23l-52 -226q-14 -59 -28.5 -126.5t-26.5 -130.5t-19 -112q25 2 53.5 2.5t50.5 0.5q1 -23 4 -48.5t6.5 -44t3.5 -20.5h-7.5t-7.5 1h-16q-39 0 -86.5 -3.5t-94 -11t-83.5 -19.5zM166 750q-1 5 -1 10.5
v9.5v18v16.5t1 16.5v34q34 35 66 65.5t62 57.5t58 55t54 56q5 -68 6 -125q0 -29 2 -58.5t6 -60.5q-29 -12 -61 -24t-66 -24q-34 -13 -66 -24.5t-61 -22.5z" />
    <glyph glyph-name="Lcaron" unicode="&#x13d;" horiz-adv-x="466" 
d="M12 -2q11 79 23.5 159t26 154.5t25.5 134.5q13 65 26 132t27 135l175 23l-52 -226q-14 -59 -28.5 -126.5t-26.5 -130.5t-19 -112q25 2 53.5 2.5t50.5 0.5q1 -23 4 -48.5t6.5 -44t3.5 -20.5h-7.5t-7.5 1h-16q-39 0 -86.5 -3.5t-94 -11t-83.5 -19.5zM337 460
q15 76 28.5 144.5t19.5 116.5h26q8 -1 15 -1h11q15 0 26 0.5t27.5 1t45.5 1.5q-14 -67 -31.5 -128t-40.5 -135h-127z" />
    <glyph glyph-name="uni013B" unicode="&#x13b;" horiz-adv-x="302" 
d="M12 -2q11 79 23.5 159t26 154.5t25.5 134.5q13 65 26 132t27 135l175 23l-52 -226q-14 -59 -28.5 -126.5t-26.5 -130.5t-19 -112q25 2 53.5 2.5t50.5 0.5q1 -23 4 -48.5t6.5 -44t3.5 -20.5h-7.5t-7.5 1h-16q-39 0 -86.5 -3.5t-94 -11t-83.5 -19.5zM17 -271q10 51 15 82
t8 56.5t7 57.5h26q8 -1 5 -1t1 0q30 0 47 0.5t35 1t47 1.5q-7 -34 -12 -55.5t-10.5 -40t-12.5 -42t-19 -60.5h-137z" />
    <glyph glyph-name="Ldot" unicode="&#x13f;" horiz-adv-x="549" 
d="M12 -2q11 79 23.5 159t26 154.5t25.5 134.5q13 65 26 132t27 135l175 23l-52 -226q-14 -59 -28.5 -126.5t-26.5 -130.5t-19 -112q25 2 53.5 2.5t50.5 0.5q1 -23 4 -48.5t6.5 -44t3.5 -20.5h-7.5t-7.5 1h-16q-39 0 -86.5 -3.5t-94 -11t-83.5 -19.5zM421 282
q-30 0 -49.5 14.5t-29 36t-9.5 43.5q0 40 26.5 69.5t73.5 29.5q58 0 87 -27.5t29 -62.5q0 -40 -33 -71.5t-95 -31.5z" />
    <glyph glyph-name="uni01C8" unicode="&#x1c8;" horiz-adv-x="581" 
d="M12 -2q11 79 23.5 159t26 154.5t25.5 134.5q13 65 26 132t27 135l175 23l-52 -226q-14 -59 -28.5 -126.5t-26.5 -130.5t-19 -112q25 2 53.5 2.5t50.5 0.5q1 -23 4 -48.5t6.5 -44t3.5 -20.5h-7.5t-7.5 1h-16q-39 0 -86.5 -3.5t-94 -11t-83.5 -19.5zM407 -1q-28 0 -60.5 12
t-71.5 41l69 154q5 -10 19.5 -17.5t31.5 -7.5q13 0 23 21t16.5 51t10.5 56.5t5 37.5q10 49 19 97t17 97q8 48 18.5 96t21.5 96q45 4 88.5 12.5t87.5 20.5q-15 -51 -31 -115.5t-31 -133.5t-28.5 -134t-23.5 -117q-9 -42 -22 -88.5t-34 -87t-51.5 -66t-73.5 -25.5z" />
    <glyph glyph-name="Lslash" unicode="&#x141;" horiz-adv-x="309" 
d="M18 -2q8 69 22.5 157t30.5 178q-7 -4 -16 -6l-13 -5q-4 -1 -7 -2.5l-5 -2.5l11 124q4 1 8.5 2.5t8.5 2.5l37 12q5 27 10 52t9 48t8 43.5t8 37.5q4 20 8 38.5t8 35.5l175 23q-7 -28 -15 -63q-8 -29 -17 -69t-19 -85q17 5 33 12l31 11l16 6t15 7l3 -120l-126 -42
q-14 -71 -27 -137t-20 -115q25 2 53 2.5t51 0.5q1 -23 4 -48.5t6.5 -44t3.5 -20.5h-7.5t-7.5 1h-16q-39 0 -86.5 -3.5t-94 -11t-83.5 -19.5z" />
    <glyph glyph-name="M" unicode="M" horiz-adv-x="619" 
d="M-30 6q44 134 84 261q17 52 35 111t36 118.5t34 114.5t27 98q55 0 104 6q25 3 51.5 6t54.5 5l-6 -49q-2 -14 -4 -28.5t-4 -29.5t-5 -30.5t-5 -31.5q-4 -31 -12 -86.5t-19 -120.5h13q29 76 48 126.5t31 82.5q17 47 37 95t33 74q24 2 57.5 6.5t68 10.5t59.5 10
q-14 -84 -25.5 -169.5t-20 -163t-14.5 -139.5t-11 -122.5t-10 -119.5l-174 -31q0 2 3 45t10 107t14 121.5t14 94.5h-9q-25 -76 -60.5 -166t-69.5 -199q-35 -1 -60 -2.5t-58 -3.5l32 371h-15q-1 -11 -9 -42.5t-19 -72t-23 -80.5q-45 -157 -48 -166z" />
    <glyph glyph-name="N" unicode="N" horiz-adv-x="453" 
d="M6 -5q14 71 27.5 139.5t26.5 135.5q14 78 28.5 158t27 156t19.5 141q16 1 31 2t29 2q13 1 26.5 2t26.5 2l48 3q7 -38 12.5 -75t10.5 -72q4 -24 9.5 -56t11 -65.5t11 -62.5t9.5 -47q10 53 16.5 87.5t13 67t15.5 76.5l31 146l122 15q-17 -75 -32 -146t-28 -138
q-25 -121 -44 -226.5t-29 -184.5l-163 -38l-15 154q-2 23 -6 55.5t-8 67t-8 63t-6 42.5q-10 -59 -19 -114.5t-20 -107.5q-7 -35 -13.5 -72.5t-14.5 -75.5z" />
    <glyph glyph-name="uni01CA" unicode="&#x1ca;" horiz-adv-x="732" 
d="M6 -5q14 71 27.5 139.5t26.5 135.5q14 78 28.5 158t27 156t19.5 141q16 1 31 2t29 2q13 1 26.5 2t26.5 2l48 3q7 -38 12.5 -75t10.5 -72q4 -24 9.5 -56t11 -65.5t11 -62.5t9.5 -47q10 53 16.5 87.5t13 67t15.5 76.5l31 146l122 15q-17 -75 -32 -146t-28 -138
q-25 -121 -44 -226.5t-29 -184.5l-163 -38l-15 154q-2 23 -6 55.5t-8 67t-8 63t-6 42.5q-10 -59 -19 -114.5t-20 -107.5q-7 -35 -13.5 -72.5t-14.5 -75.5zM558 -1q-28 0 -60.5 12t-71.5 41l69 154q5 -10 19.5 -17.5t31.5 -7.5q13 0 23 21t16.5 51t10.5 56.5t5 37.5
q10 49 19 97t17 97q8 48 18.5 96t21.5 96q45 4 88.5 12.5t87.5 20.5q-15 -51 -31 -115.5t-31 -133.5t-28.5 -134t-23.5 -117q-9 -42 -22 -88.5t-34 -87t-51.5 -66t-73.5 -25.5z" />
    <glyph glyph-name="Nacute" unicode="&#x143;" horiz-adv-x="453" 
d="M6 -5q14 71 27.5 139.5t26.5 135.5q14 78 28.5 158t27 156t19.5 141q16 1 31 2t29 2q13 1 26.5 2t26.5 2l48 3q7 -38 12.5 -75t10.5 -72q4 -24 9.5 -56t11 -65.5t11 -62.5t9.5 -47q10 53 16.5 87.5t13 67t15.5 76.5l31 146l122 15q-17 -75 -32 -146t-28 -138
q-25 -121 -44 -226.5t-29 -184.5l-163 -38l-15 154q-2 23 -6 55.5t-8 67t-8 63t-6 42.5q-10 -59 -19 -114.5t-20 -107.5q-7 -35 -13.5 -72.5t-14.5 -75.5zM297 750q-1 5 -1 10.5v9.5v18v16.5t1 16.5v34q34 35 66 65.5t62 57.5t58 55t54 56q5 -68 6 -125q0 -29 2 -58.5
t6 -60.5q-29 -12 -61 -24t-66 -24q-34 -13 -66 -24.5t-61 -22.5z" />
    <glyph glyph-name="Ncaron" unicode="&#x147;" horiz-adv-x="453" 
d="M6 -5q14 71 27.5 139.5t26.5 135.5q14 78 28.5 158t27 156t19.5 141q16 1 31 2t29 2q13 1 26.5 2t26.5 2l48 3q7 -38 12.5 -75t10.5 -72q4 -24 9.5 -56t11 -65.5t11 -62.5t9.5 -47q10 53 16.5 87.5t13 67t15.5 76.5l31 146l122 15q-17 -75 -32 -146t-28 -138
q-25 -121 -44 -226.5t-29 -184.5l-163 -38l-15 154q-2 23 -6 55.5t-8 67t-8 63t-6 42.5q-10 -59 -19 -114.5t-20 -107.5q-7 -35 -13.5 -72.5t-14.5 -75.5zM366 756q-13 1 -24 1.5t-18 0.5h-16q-4 -1 -10 -1q-4 0 -4 1q-4 13 -9.5 28.5t-10.5 32.5q-6 17 -12 33t-11 32
l-12 36t-13 37l22 21q5 5 11 10l12 10l24 20l67 -115q17 19 39.5 46t41.5 50t24 29q13 -11 23 -20t18 -17l16 -15q-13 -22 -26.5 -42.5t-27.5 -40.5q-23 -34 -51 -72t-53 -65z" />
    <glyph glyph-name="uni0145" unicode="&#x145;" horiz-adv-x="453" 
d="M6 -5q14 71 27.5 139.5t26.5 135.5q14 78 28.5 158t27 156t19.5 141q16 1 31 2t29 2q13 1 26.5 2t26.5 2l48 3q7 -38 12.5 -75t10.5 -72q4 -24 9.5 -56t11 -65.5t11 -62.5t9.5 -47q10 53 16.5 87.5t13 67t15.5 76.5l31 146l122 15q-17 -75 -32 -146t-28 -138
q-25 -121 -44 -226.5t-29 -184.5l-163 -38l-15 154q-2 23 -6 55.5t-8 67t-8 63t-6 42.5q-10 -59 -19 -114.5t-20 -107.5q-7 -35 -13.5 -72.5t-14.5 -75.5zM93 -271q10 51 15 82t8 56.5t7 57.5h26q8 -1 5 -1t1 0q30 0 47 0.5t35 1t47 1.5q-7 -34 -12 -55.5t-10.5 -40
t-12.5 -42t-19 -60.5h-137z" />
    <glyph glyph-name="uni019D" unicode="&#x19d;" horiz-adv-x="465" 
d="M180 177l-28 -148q-3 -22 -13.5 -57t-31 -70t-51 -59t-74.5 -24q-34 0 -67 15.5t-65 37.5l57 128q14 -16 27.5 -26t27.5 -10q13 0 27.5 9t18.5 31l52 266q5 29 10.5 58t10.5 60q6 31 11.5 61t10.5 60t9.5 58.5t8.5 55.5q5 28 8.5 53.5t5.5 48.5q15 1 30.5 2t29.5 2l53 3
q14 1 26 2t22 2q7 -38 13 -75t10 -72l10 -63q3 -16 6 -31.5t5 -30.5q2 -16 5 -30t5 -28l10 -48l9 48q2 14 5 28t6 30q3 15 6 31t7 31l12 63l31 146l122 15q-17 -76 -31.5 -146.5t-28.5 -137.5l-23 -117l-22 -115q-5 -27 -9.5 -52.5t-7.5 -48.5q-4 -22 -6.5 -42l-4.5 -36
l-163 -38l-22 217l-8 64q-1 15 -2.5 29t-3.5 27l-7 45l-8 -45q-2 -12 -5 -26t-5 -29t-5 -30t-6 -31q-1 -15 -4 -30.5t-6 -30.5z" />
    <glyph glyph-name="uni01CB" unicode="&#x1cb;" horiz-adv-x="732" 
d="M6 -5q14 71 27.5 139.5t26.5 135.5q14 78 28.5 158t27 156t19.5 141q16 1 31 2t29 2q13 1 26.5 2t26.5 2l48 3q7 -38 12.5 -75t10.5 -72q4 -24 9.5 -56t11 -65.5t11 -62.5t9.5 -47q10 53 16.5 87.5t13 67t15.5 76.5l31 146l122 15q-17 -75 -32 -146t-28 -138
q-25 -121 -44 -226.5t-29 -184.5l-163 -38l-15 154q-2 23 -6 55.5t-8 67t-8 63t-6 42.5q-10 -59 -19 -114.5t-20 -107.5q-7 -35 -13.5 -72.5t-14.5 -75.5zM558 -1q-28 0 -60.5 12t-71.5 41l69 154q5 -10 19.5 -17.5t31.5 -7.5q13 0 23 21t16.5 51t10.5 56.5t5 37.5
q10 49 19 97t17 97q8 48 18.5 96t21.5 96q45 4 88.5 12.5t87.5 20.5q-15 -51 -31 -115.5t-31 -133.5t-28.5 -134t-23.5 -117q-9 -42 -22 -88.5t-34 -87t-51.5 -66t-73.5 -25.5z" />
    <glyph glyph-name="Ntilde" unicode="&#xd1;" horiz-adv-x="453" 
d="M6 -5q14 71 27.5 139.5t26.5 135.5q14 78 28.5 158t27 156t19.5 141q16 1 31 2t29 2q13 1 26.5 2t26.5 2l48 3q7 -38 12.5 -75t10.5 -72q4 -24 9.5 -56t11 -65.5t11 -62.5t9.5 -47q10 53 16.5 87.5t13 67t15.5 76.5l31 146l122 15q-17 -75 -32 -146t-28 -138
q-25 -121 -44 -226.5t-29 -184.5l-163 -38l-15 154q-2 23 -6 55.5t-8 67t-8 63t-6 42.5q-10 -59 -19 -114.5t-20 -107.5q-7 -35 -13.5 -72.5t-14.5 -75.5zM251 767q-13 9 -31 23.5t-23 20.5l12.5 25.5t37.5 62.5q23 35 54.5 62t68.5 27q23 0 41.5 -13t32.5 -30t23.5 -30
t13.5 -13q20 0 38 17.5t35 39t30 33.5q6 -4 11.5 -8.5t10.5 -8.5t9.5 -7.5t8.5 -6.5t7.5 -6t6.5 -7q-21 -49 -48 -87q-20 -31 -54 -58.5t-72 -27.5q-24 0 -37 10.5t-22 23.5t-20 23.5t-32 10.5q-19 0 -37.5 -14t-35 -32t-29.5 -30z" />
    <glyph glyph-name="Eng" unicode="&#x14a;" horiz-adv-x="453" 
d="M425 67q-5 -35 -17.5 -78t-33.5 -82t-52 -64.5t-74 -25.5q-35 0 -68 15.5t-65 37.5l58 128q14 -15 27.5 -25.5t27.5 -10.5q13 0 24.5 12t9.5 28l-22 232l-8 64q-1 15 -2.5 29t-3.5 27l-7 45l-8 -45q-2 -12 -5 -26t-5 -29t-5 -30t-6 -31q-1 -15 -4 -30.5t-6 -30.5
l-28 -148l-146 -34q14 71 27.5 139.5t26.5 135.5q5 29 10.5 58t10.5 60q6 31 11.5 61t10.5 60t9.5 58.5t8.5 55.5q5 28 8.5 53.5t5.5 48.5q15 1 30.5 2t29.5 2l53 3q14 1 26 2t22 2q7 -38 13 -75t10 -72l10 -63q3 -16 6 -31.5t5 -30.5q2 -16 5 -30t5 -28l10 -48l9 48
q2 14 5 28t6 30q3 15 6 31t7 31l12 63l31 146l122 15q-17 -76 -31.5 -146.5t-28.5 -137.5l-23 -117l-22 -115q-5 -27 -9.5 -52.5t-7.5 -48.5q-4 -22 -6.5 -35.5t-4.5 -30.5z" />
    <glyph glyph-name="O" unicode="O" 
d="M181 -4q-66 0 -108 51t-42 154q0 57 14 120t39 124t58 113q53 84 122 137t145 53q60 0 92.5 -30.5t45.5 -78t13 -98.5q0 -119 -36.5 -221.5t-94.5 -173.5q-58 -73 -123.5 -111.5t-124.5 -38.5zM235 161q45 0 79.5 30t58.5 76.5t36 97.5t12 92q0 16 -3 34.5t-13 32.5
t-31 14q-46 0 -83 -33.5t-62 -84.5q-25 -52 -37 -102t-12 -91q0 -21 15 -43.5t40 -22.5z" />
    <glyph glyph-name="Oacute" unicode="&#xd3;" 
d="M181 -4q-66 0 -108 51t-42 154q0 57 14 120t39 124t58 113q53 84 122 137t145 53q60 0 92.5 -30.5t45.5 -78t13 -98.5q0 -119 -36.5 -221.5t-94.5 -173.5q-58 -73 -123.5 -111.5t-124.5 -38.5zM235 161q45 0 79.5 30t58.5 76.5t36 97.5t12 92q0 16 -3 34.5t-13 32.5
t-31 14q-46 0 -83 -33.5t-62 -84.5q-25 -52 -37 -102t-12 -91q0 -21 15 -43.5t40 -22.5zM336 779q-1 5 -1 10.5v9.5v18v16.5t1 16.5v34q34 35 66 65.5t62 57.5t58 55t54 56q5 -68 6 -125q0 -29 2 -58.5t6 -60.5q-29 -12 -61 -24t-66 -24q-34 -13 -66 -24.5t-61 -22.5z" />
    <glyph glyph-name="Obreve" unicode="&#x14e;" 
d="M181 -4q-66 0 -108 51t-42 154q0 57 14 120t39 124t58 113q53 84 122 137t145 53q60 0 92.5 -30.5t45.5 -78t13 -98.5q0 -119 -36.5 -221.5t-94.5 -173.5q-58 -73 -123.5 -111.5t-124.5 -38.5zM235 161q45 0 79.5 30t58.5 76.5t36 97.5t12 92q0 16 -3 34.5t-13 32.5
t-31 14q-46 0 -83 -33.5t-62 -84.5q-25 -52 -37 -102t-12 -91q0 -21 15 -43.5t40 -22.5zM427 799q-36 0 -65 26.5t-44 67t-13 82.5l22 20q5 5 11 10l12 10q5 5 11 10t13 10q-1 -24 6.5 -49t21.5 -42t33 -17q33 0 49 15q17 14 29.5 38t32.5 65q13 -11 23 -19.5t18 -16.5
l16 -16q-9 -45 -33.5 -90t-60.5 -74.5t-82 -29.5z" />
    <glyph glyph-name="Ocircumflex" unicode="&#xd4;" 
d="M181 -4q-66 0 -108 51t-42 154q0 57 14 120t39 124t58 113q53 84 122 137t145 53q60 0 92.5 -30.5t45.5 -78t13 -98.5q0 -119 -36.5 -221.5t-94.5 -173.5q-58 -73 -123.5 -111.5t-124.5 -38.5zM235 161q45 0 79.5 30t58.5 76.5t36 97.5t12 92q0 16 -3 34.5t-13 32.5
t-31 14q-46 0 -83 -33.5t-62 -84.5q-25 -52 -37 -102t-12 -91q0 -21 15 -43.5t40 -22.5zM345 779q-13 11 -23 20.5t-16 17.5q-4 5 -8 9t-7 8q14 20 28.5 40.5t29.5 39.5q25 33 54.5 69t55.5 62q20 -3 33.5 -4.5t21.5 -0.5q15 1 17 -1q4 -13 8.5 -29t9.5 -33l18 -66
q5 -19 11 -37t11 -37l-24 -20q-5 -4 -10.5 -8.5t-12.5 -9.5l-25 -19l-61 118q-20 -18 -42 -41.5t-40 -44.5t-29 -33z" />
    <glyph glyph-name="uni1ED0" unicode="&#x1ed0;" 
d="M181 -4q-66 0 -108 51t-42 154q0 57 14 120t39 124t58 113q53 84 122 137t145 53q60 0 92.5 -30.5t45.5 -78t13 -98.5q0 -119 -36.5 -221.5t-94.5 -173.5q-58 -73 -123.5 -111.5t-124.5 -38.5zM235 161q45 0 79.5 30t58.5 76.5t36 97.5t12 92q0 16 -3 34.5t-13 32.5
t-31 14q-46 0 -83 -33.5t-62 -84.5q-25 -52 -37 -102t-12 -91q0 -21 15 -43.5t40 -22.5zM596 927q-1 4 -1 7v6v33l1 22q22 22 42.5 42t39.5 37q39 35 72 72q2 -22 3 -42t1 -39q0 -36 6 -77q-19 -7 -39.5 -15t-42.5 -16t-42.5 -15.5t-39.5 -14.5zM348 768q-13 11 -23 20.5
t-16 17.5q-4 5 -8 9t-7 8q14 20 28.5 40.5t29.5 39.5q25 33 54.5 69t55.5 62q20 -3 33.5 -4.5t21.5 -0.5q15 1 17 -1q4 -13 8.5 -29t9.5 -33l18 -66q5 -19 11 -37t11 -37l-24 -20q-5 -4 -10.5 -8.5t-12.5 -9.5l-25 -19l-61 118q-20 -18 -42 -41.5t-40 -44.5t-29 -33z" />
    <glyph glyph-name="uni1ED8" unicode="&#x1ed8;" 
d="M181 -4q-66 0 -108 51t-42 154q0 57 14 120t39 124t58 113q53 84 122 137t145 53q60 0 92.5 -30.5t45.5 -78t13 -98.5q0 -119 -36.5 -221.5t-94.5 -173.5q-58 -73 -123.5 -111.5t-124.5 -38.5zM235 161q45 0 79.5 30t58.5 76.5t36 97.5t12 92q0 16 -3 34.5t-13 32.5
t-31 14q-46 0 -83 -33.5t-62 -84.5q-25 -52 -37 -102t-12 -91q0 -21 15 -43.5t40 -22.5zM345 779q-13 11 -23 20.5t-16 17.5q-4 5 -8 9t-7 8q14 20 28.5 40.5t29.5 39.5q25 33 54.5 69t55.5 62q20 -3 33.5 -4.5t21.5 -0.5q15 1 17 -1q4 -13 8.5 -29t9.5 -33l18 -66
q5 -19 11 -37t11 -37l-24 -20q-5 -4 -10.5 -8.5t-12.5 -9.5l-25 -19l-61 118q-20 -18 -42 -41.5t-40 -44.5t-29 -33zM148 -205q-40 0 -60 26t-20 60q0 32 22 60.5t68 28.5q49 0 72.5 -25t23.5 -57q0 -35 -27.5 -64t-78.5 -29z" />
    <glyph glyph-name="uni1ED2" unicode="&#x1ed2;" 
d="M181 -4q-66 0 -108 51t-42 154q0 57 14 120t39 124t58 113q53 84 122 137t145 53q60 0 92.5 -30.5t45.5 -78t13 -98.5q0 -119 -36.5 -221.5t-94.5 -173.5q-58 -73 -123.5 -111.5t-124.5 -38.5zM235 161q45 0 79.5 30t58.5 76.5t36 97.5t12 92q0 16 -3 34.5t-13 32.5
t-31 14q-46 0 -83 -33.5t-62 -84.5q-25 -52 -37 -102t-12 -91q0 -21 15 -43.5t40 -22.5zM369 952q-16 5 -32 8.5t-32 7.5q-27 6 -55 13.5t-47 13.5q4 19 9.5 46.5t9.5 52.5l12 61q13 -13 25.5 -26.5t25.5 -26.5q21 -23 45.5 -49.5t43.5 -47.5zM342 747q-13 11 -23 20.5
t-16 17.5q-4 5 -8 9t-7 8q14 20 28.5 40.5t29.5 39.5q25 33 54.5 69t55.5 62q20 -3 33.5 -4.5t21.5 -0.5q15 1 17 -1q4 -13 8.5 -29t9.5 -33l18 -66q5 -19 11 -37t11 -37l-24 -20q-5 -4 -10.5 -8.5t-12.5 -9.5l-25 -19l-61 118q-20 -18 -42 -41.5t-40 -44.5t-29 -33z" />
    <glyph glyph-name="uni1ED4" unicode="&#x1ed4;" 
d="M181 -4q-66 0 -108 51t-42 154q0 57 14 120t39 124t58 113q53 84 122 137t145 53q60 0 92.5 -30.5t45.5 -78t13 -98.5q0 -119 -36.5 -221.5t-94.5 -173.5q-58 -73 -123.5 -111.5t-124.5 -38.5zM235 161q45 0 79.5 30t58.5 76.5t36 97.5t12 92q0 16 -3 34.5t-13 32.5
t-31 14q-46 0 -83 -33.5t-62 -84.5q-25 -52 -37 -102t-12 -91q0 -21 15 -43.5t40 -22.5zM603 939q0 27 10.5 44.5t23.5 30.5q12 12 22.5 21t10.5 16q0 2 -3 5.5t-8 3.5q-10 0 -24 -10t-29 -22l-16 59q46 36 89 36q10 0 23 -2t20 -7q9 -6 17 -17.5t11 -37.5q0 -22 -10 -37
t-25 -26q-16 -11 -27.5 -22.5t-17.5 -30.5l-19 -2zM355 762q-13 11 -23 20.5t-16 17.5q-4 5 -8 9t-7 8q14 20 28.5 40.5t29.5 39.5q25 33 54.5 69t55.5 62q20 -3 33.5 -4.5t21.5 -0.5q15 1 17 -1q4 -13 8.5 -29t9.5 -33l18 -66q5 -19 11 -37t11 -37l-24 -20
q-5 -4 -10.5 -8.5t-12.5 -9.5l-25 -19l-61 118q-20 -18 -42 -41.5t-40 -44.5t-29 -33z" />
    <glyph glyph-name="uni1ED6" unicode="&#x1ed6;" 
d="M181 -4q-66 0 -108 51t-42 154q0 57 14 120t39 124t58 113q53 84 122 137t145 53q60 0 92.5 -30.5t45.5 -78t13 -98.5q0 -119 -36.5 -221.5t-94.5 -173.5q-58 -73 -123.5 -111.5t-124.5 -38.5zM235 161q45 0 79.5 30t58.5 76.5t36 97.5t12 92q0 16 -3 34.5t-13 32.5
t-31 14q-46 0 -83 -33.5t-62 -84.5q-25 -52 -37 -102t-12 -91q0 -21 15 -43.5t40 -22.5zM377 1067q-13 9 -31 23.5t-23 20.5l12.5 25.5t37.5 62.5q23 35 54.5 62t68.5 27q23 0 41.5 -13t32.5 -30t23.5 -30t13.5 -13q20 0 38 17.5t35 39t30 33.5q6 -4 11.5 -8.5t10.5 -8.5
t9.5 -7.5t8.5 -6.5t7.5 -6t6.5 -7q-21 -49 -48 -87q-20 -31 -54 -58.5t-72 -27.5q-24 0 -37 10.5t-22 23.5t-20 23.5t-32 10.5q-19 0 -37.5 -14t-35 -32t-29.5 -30zM347 755q-13 11 -23 20.5t-16 17.5q-4 5 -8 9t-7 8q14 20 28.5 40.5t29.5 39.5q25 33 54.5 69t55.5 62
q20 -3 33.5 -4.5t21.5 -0.5q15 1 17 -1q4 -13 8.5 -29t9.5 -33l18 -66q5 -19 11 -37t11 -37l-24 -20q-5 -4 -10.5 -8.5t-12.5 -9.5l-25 -19l-61 118q-20 -18 -42 -41.5t-40 -44.5t-29 -33z" />
    <glyph glyph-name="uni020C" unicode="&#x20c;" 
d="M181 -4q-66 0 -108 51t-42 154q0 57 14 120t39 124t58 113q53 84 122 137t145 53q60 0 92.5 -30.5t45.5 -78t13 -98.5q0 -119 -36.5 -221.5t-94.5 -173.5q-58 -73 -123.5 -111.5t-124.5 -38.5zM235 161q45 0 79.5 30t58.5 76.5t36 97.5t12 92q0 16 -3 34.5t-13 32.5
t-31 14q-46 0 -83 -33.5t-62 -84.5q-25 -52 -37 -102t-12 -91q0 -21 15 -43.5t40 -22.5zM379 761l-50 12t-48 12q-41 9 -84 20.5t-72 20.5q6 29 14 70.5t15 80.5l18 94q20 -21 39.5 -41.5t38.5 -40.5q33 -35 70.5 -75t65.5 -72zM668 736l-50 12t-48 12q-41 9 -84 20.5
t-72 20.5q6 29 14 70.5t15 80.5l18 94q20 -21 39.5 -41.5t38.5 -40.5q33 -35 70.5 -75t65.5 -72z" />
    <glyph glyph-name="Odieresis" unicode="&#xd6;" 
d="M181 -4q-66 0 -108 51t-42 154q0 57 14 120t39 124t58 113q53 84 122 137t145 53q60 0 92.5 -30.5t45.5 -78t13 -98.5q0 -119 -36.5 -221.5t-94.5 -173.5q-58 -73 -123.5 -111.5t-124.5 -38.5zM235 161q45 0 79.5 30t58.5 76.5t36 97.5t12 92q0 16 -3 34.5t-13 32.5
t-31 14q-46 0 -83 -33.5t-62 -84.5q-25 -52 -37 -102t-12 -91q0 -21 15 -43.5t40 -22.5zM546 843q-40 0 -60 26.5t-20 59.5q0 35 23.5 62t67.5 27q48 0 72 -25t24 -56q0 -34 -27.5 -64t-79.5 -30zM314 843q-40 0 -60 26.5t-20 59.5q0 34 22.5 61.5t67.5 27.5q49 0 72.5 -25
t23.5 -56q0 -39 -29.5 -66.5t-76.5 -27.5z" />
    <glyph glyph-name="uni022A" unicode="&#x22a;" 
d="M181 -4q-66 0 -108 51t-42 154q0 57 14 120t39 124t58 113q53 84 122 137t145 53q60 0 92.5 -30.5t45.5 -78t13 -98.5q0 -119 -36.5 -221.5t-94.5 -173.5q-58 -73 -123.5 -111.5t-124.5 -38.5zM235 161q45 0 79.5 30t58.5 76.5t36 97.5t12 92q0 16 -3 34.5t-13 32.5
t-31 14q-46 0 -83 -33.5t-62 -84.5q-25 -52 -37 -102t-12 -91q0 -21 15 -43.5t40 -22.5zM546 843q-40 0 -60 26.5t-20 59.5q0 35 23.5 62t67.5 27q48 0 72 -25t24 -56q0 -34 -27.5 -64t-79.5 -30zM314 843q-40 0 -60 26.5t-20 59.5q0 34 22.5 61.5t67.5 27.5q49 0 72.5 -25
t23.5 -56q0 -39 -29.5 -66.5t-76.5 -27.5zM255 1062q-5 17 -6 45t-1 54v40v9.5t1 8.5l374 32l16 -162l-151 -9q-50 -3 -88.5 -6t-73 -5.5t-71.5 -6.5z" />
    <glyph glyph-name="uni0230" unicode="&#x230;" 
d="M181 -4q-66 0 -108 51t-42 154q0 57 14 120t39 124t58 113q53 84 122 137t145 53q60 0 92.5 -30.5t45.5 -78t13 -98.5q0 -119 -36.5 -221.5t-94.5 -173.5q-58 -73 -123.5 -111.5t-124.5 -38.5zM235 161q45 0 79.5 30t58.5 76.5t36 97.5t12 92q0 16 -3 34.5t-13 32.5
t-31 14q-46 0 -83 -33.5t-62 -84.5q-25 -52 -37 -102t-12 -91q0 -21 15 -43.5t40 -22.5zM437 807q-40 0 -60 26t-20 60q0 32 22 60.5t68 28.5q49 0 72.5 -25t23.5 -57q0 -35 -27.5 -64t-78.5 -29zM262 1026q-5 17 -6 45t-1 54v40v9.5t1 8.5l374 32l16 -162l-151 -9
q-50 -3 -88.5 -6t-73 -5.5t-71.5 -6.5z" />
    <glyph glyph-name="uni1ECC" unicode="&#x1ecc;" 
d="M181 -4q-66 0 -108 51t-42 154q0 57 14 120t39 124t58 113q53 84 122 137t145 53q60 0 92.5 -30.5t45.5 -78t13 -98.5q0 -119 -36.5 -221.5t-94.5 -173.5q-58 -73 -123.5 -111.5t-124.5 -38.5zM235 161q45 0 79.5 30t58.5 76.5t36 97.5t12 92q0 16 -3 34.5t-13 32.5
t-31 14q-46 0 -83 -33.5t-62 -84.5q-25 -52 -37 -102t-12 -91q0 -21 15 -43.5t40 -22.5zM148 -205q-40 0 -60 26t-20 60q0 32 22 60.5t68 28.5q49 0 72.5 -25t23.5 -57q0 -35 -27.5 -64t-78.5 -29z" />
    <glyph glyph-name="Ograve" unicode="&#xd2;" 
d="M181 -4q-66 0 -108 51t-42 154q0 57 14 120t39 124t58 113q53 84 122 137t145 53q60 0 92.5 -30.5t45.5 -78t13 -98.5q0 -119 -36.5 -221.5t-94.5 -173.5q-58 -73 -123.5 -111.5t-124.5 -38.5zM235 161q45 0 79.5 30t58.5 76.5t36 97.5t12 92q0 16 -3 34.5t-13 32.5
t-31 14q-46 0 -83 -33.5t-62 -84.5q-25 -52 -37 -102t-12 -91q0 -21 15 -43.5t40 -22.5zM453 781l-50 12t-48 12q-41 9 -84 20.5t-72 20.5q6 29 14 70.5t15 80.5l18 94q20 -21 39.5 -41.5t38.5 -40.5q33 -35 70.5 -75t65.5 -72z" />
    <glyph glyph-name="uni1ECE" unicode="&#x1ece;" 
d="M181 -4q-66 0 -108 51t-42 154q0 57 14 120t39 124t58 113q53 84 122 137t145 53q60 0 92.5 -30.5t45.5 -78t13 -98.5q0 -119 -36.5 -221.5t-94.5 -173.5q-58 -73 -123.5 -111.5t-124.5 -38.5zM235 161q45 0 79.5 30t58.5 76.5t36 97.5t12 92q0 16 -3 34.5t-13 32.5
t-31 14q-46 0 -83 -33.5t-62 -84.5q-25 -52 -37 -102t-12 -91q0 -21 15 -43.5t40 -22.5zM386 774q0 27 10.5 44.5t23.5 30.5q12 12 22.5 21t10.5 16q0 2 -3 5.5t-8 3.5q-10 0 -24 -10t-29 -22l-16 59q46 36 89 36q10 0 23 -2t20 -7q9 -6 17 -17.5t11 -37.5q0 -22 -10 -37
t-25 -26q-16 -11 -27.5 -22.5t-17.5 -30.5l-19 -2z" />
    <glyph glyph-name="Ohorn" unicode="&#x1a0;" 
d="M181 -4q-66 0 -108 51t-42 154q0 57 14 120t39 124t58 113q53 84 122 137t145 53q60 0 92.5 -30.5t45.5 -78t13 -98.5q0 -119 -36.5 -221.5t-94.5 -173.5q-58 -73 -123.5 -111.5t-124.5 -38.5zM235 161q45 0 79.5 30t58.5 76.5t36 97.5t12 92q0 16 -3 34.5t-13 32.5
t-31 14q-46 0 -83 -33.5t-62 -84.5q-25 -52 -37 -102t-12 -91q0 -21 15 -43.5t40 -22.5zM519 612q29 0 45.5 18.5t24 45.5t9 54.5t0.5 45.5q7 -5 13 -10l12 -10q5 -5 11 -10t11 -10l22 -20q3 -42 -12 -80t-45.5 -64t-77.5 -32z" />
    <glyph glyph-name="uni1EDA" unicode="&#x1eda;" 
d="M181 -4q-66 0 -108 51t-42 154q0 57 14 120t39 124t58 113q53 84 122 137t145 53q60 0 92.5 -30.5t45.5 -78t13 -98.5q0 -119 -36.5 -221.5t-94.5 -173.5q-58 -73 -123.5 -111.5t-124.5 -38.5zM235 161q45 0 79.5 30t58.5 76.5t36 97.5t12 92q0 16 -3 34.5t-13 32.5
t-31 14q-46 0 -83 -33.5t-62 -84.5q-25 -52 -37 -102t-12 -91q0 -21 15 -43.5t40 -22.5zM519 612q29 0 45.5 18.5t24 45.5t9 54.5t0.5 45.5q7 -5 13 -10l12 -10q5 -5 11 -10t11 -10l22 -20q3 -42 -12 -80t-45.5 -64t-77.5 -32zM336 779q-1 5 -1 10.5v9.5v18v16.5t1 16.5v34
q34 35 66 65.5t62 57.5t58 55t54 56q5 -68 6 -125q0 -29 2 -58.5t6 -60.5q-29 -12 -61 -24t-66 -24q-34 -13 -66 -24.5t-61 -22.5z" />
    <glyph glyph-name="uni1EE2" unicode="&#x1ee2;" 
d="M181 -4q-66 0 -108 51t-42 154q0 57 14 120t39 124t58 113q53 84 122 137t145 53q60 0 92.5 -30.5t45.5 -78t13 -98.5q0 -119 -36.5 -221.5t-94.5 -173.5q-58 -73 -123.5 -111.5t-124.5 -38.5zM235 161q45 0 79.5 30t58.5 76.5t36 97.5t12 92q0 16 -3 34.5t-13 32.5
t-31 14q-46 0 -83 -33.5t-62 -84.5q-25 -52 -37 -102t-12 -91q0 -21 15 -43.5t40 -22.5zM519 612q29 0 45.5 18.5t24 45.5t9 54.5t0.5 45.5q7 -5 13 -10l12 -10q5 -5 11 -10t11 -10l22 -20q3 -42 -12 -80t-45.5 -64t-77.5 -32zM148 -205q-40 0 -60 26t-20 60q0 32 22 60.5
t68 28.5q49 0 72.5 -25t23.5 -57q0 -35 -27.5 -64t-78.5 -29z" />
    <glyph glyph-name="uni1EDC" unicode="&#x1edc;" 
d="M181 -4q-66 0 -108 51t-42 154q0 57 14 120t39 124t58 113q53 84 122 137t145 53q60 0 92.5 -30.5t45.5 -78t13 -98.5q0 -119 -36.5 -221.5t-94.5 -173.5q-58 -73 -123.5 -111.5t-124.5 -38.5zM235 161q45 0 79.5 30t58.5 76.5t36 97.5t12 92q0 16 -3 34.5t-13 32.5
t-31 14q-46 0 -83 -33.5t-62 -84.5q-25 -52 -37 -102t-12 -91q0 -21 15 -43.5t40 -22.5zM519 612q29 0 45.5 18.5t24 45.5t9 54.5t0.5 45.5q7 -5 13 -10l12 -10q5 -5 11 -10t11 -10l22 -20q3 -42 -12 -80t-45.5 -64t-77.5 -32zM453 781l-50 12t-48 12q-41 9 -84 20.5
t-72 20.5q6 29 14 70.5t15 80.5l18 94q20 -21 39.5 -41.5t38.5 -40.5q33 -35 70.5 -75t65.5 -72z" />
    <glyph glyph-name="uni1EDE" unicode="&#x1ede;" 
d="M181 -4q-66 0 -108 51t-42 154q0 57 14 120t39 124t58 113q53 84 122 137t145 53q60 0 92.5 -30.5t45.5 -78t13 -98.5q0 -119 -36.5 -221.5t-94.5 -173.5q-58 -73 -123.5 -111.5t-124.5 -38.5zM235 161q45 0 79.5 30t58.5 76.5t36 97.5t12 92q0 16 -3 34.5t-13 32.5
t-31 14q-46 0 -83 -33.5t-62 -84.5q-25 -52 -37 -102t-12 -91q0 -21 15 -43.5t40 -22.5zM519 612q29 0 45.5 18.5t24 45.5t9 54.5t0.5 45.5q7 -5 13 -10l12 -10q5 -5 11 -10t11 -10l22 -20q3 -42 -12 -80t-45.5 -64t-77.5 -32zM386 774q0 27 10.5 44.5t23.5 30.5
q12 12 22.5 21t10.5 16q0 2 -3 5.5t-8 3.5q-10 0 -24 -10t-29 -22l-16 59q46 36 89 36q10 0 23 -2t20 -7q9 -6 17 -17.5t11 -37.5q0 -22 -10 -37t-25 -26q-16 -11 -27.5 -22.5t-17.5 -30.5l-19 -2z" />
    <glyph glyph-name="uni1EE0" unicode="&#x1ee0;" 
d="M181 -4q-66 0 -108 51t-42 154q0 57 14 120t39 124t58 113q53 84 122 137t145 53q60 0 92.5 -30.5t45.5 -78t13 -98.5q0 -119 -36.5 -221.5t-94.5 -173.5q-58 -73 -123.5 -111.5t-124.5 -38.5zM235 161q45 0 79.5 30t58.5 76.5t36 97.5t12 92q0 16 -3 34.5t-13 32.5
t-31 14q-46 0 -83 -33.5t-62 -84.5q-25 -52 -37 -102t-12 -91q0 -21 15 -43.5t40 -22.5zM519 612q29 0 45.5 18.5t24 45.5t9 54.5t0.5 45.5q7 -5 13 -10l12 -10q5 -5 11 -10t11 -10l22 -20q3 -42 -12 -80t-45.5 -64t-77.5 -32zM290 796q-13 9 -31 23.5t-23 20.5l12.5 25.5
t37.5 62.5q23 35 54.5 62t68.5 27q23 0 41.5 -13t32.5 -30t23.5 -30t13.5 -13q20 0 38 17.5t35 39t30 33.5q6 -4 11.5 -8.5t10.5 -8.5t9.5 -7.5t8.5 -6.5t7.5 -6t6.5 -7q-21 -49 -48 -87q-20 -31 -54 -58.5t-72 -27.5q-24 0 -37 10.5t-22 23.5t-20 23.5t-32 10.5
q-19 0 -37.5 -14t-35 -32t-29.5 -30z" />
    <glyph glyph-name="Ohungarumlaut" unicode="&#x150;" 
d="M181 -4q-66 0 -108 51t-42 154q0 57 14 120t39 124t58 113q53 84 122 137t145 53q60 0 92.5 -30.5t45.5 -78t13 -98.5q0 -119 -36.5 -221.5t-94.5 -173.5q-58 -73 -123.5 -111.5t-124.5 -38.5zM235 161q45 0 79.5 30t58.5 76.5t36 97.5t12 92q0 16 -3 34.5t-13 32.5
t-31 14q-46 0 -83 -33.5t-62 -84.5q-25 -52 -37 -102t-12 -91q0 -21 15 -43.5t40 -22.5zM458 772q-7 18 -18.5 33t-17.5 27t0 21q22 32 43 64.5t42 64.5q20 32 42 64.5t44 63.5q13 -31 25.5 -61t24.5 -61q11 -31 23.5 -61t25.5 -60l-117 -48q-29 -13 -58.5 -24.5
t-58.5 -22.5zM172 772q-7 18 -12 28.5t-10 22t-15 30.5q22 32 43 65t42 65t43 64t44 63q13 -31 25.5 -61t24.5 -61q11 -31 23.5 -61t25.5 -60l-117 -48q-29 -13 -58.5 -24.5t-58.5 -22.5z" />
    <glyph glyph-name="uni020E" unicode="&#x20e;" 
d="M181 -4q-66 0 -108 51t-42 154q0 57 14 120t39 124t58 113q53 84 122 137t145 53q60 0 92.5 -30.5t45.5 -78t13 -98.5q0 -119 -36.5 -221.5t-94.5 -173.5q-58 -73 -123.5 -111.5t-124.5 -38.5zM235 161q45 0 79.5 30t58.5 76.5t36 97.5t12 92q0 16 -3 34.5t-13 32.5
t-31 14q-46 0 -83 -33.5t-62 -84.5q-25 -52 -37 -102t-12 -91q0 -21 15 -43.5t40 -22.5zM440 1006q37 0 65.5 -26.5t44 -66.5t12.5 -83l-22 -20q-5 -4 -11 -9t-11 -10q-6 -5 -12 -10.5t-13 -10.5q1 25 -6.5 49.5t-21.5 41.5t-33 17q-31 0 -48 -14q-16 -15 -29.5 -39
t-33.5 -65q-13 11 -23 19.5t-18 16.5l-16 16q10 46 34 90.5t60 74t82 29.5z" />
    <glyph glyph-name="Omacron" unicode="&#x14c;" 
d="M181 -4q-66 0 -108 51t-42 154q0 57 14 120t39 124t58 113q53 84 122 137t145 53q60 0 92.5 -30.5t45.5 -78t13 -98.5q0 -119 -36.5 -221.5t-94.5 -173.5q-58 -73 -123.5 -111.5t-124.5 -38.5zM235 161q45 0 79.5 30t58.5 76.5t36 97.5t12 92q0 16 -3 34.5t-13 32.5
t-31 14q-46 0 -83 -33.5t-62 -84.5q-25 -52 -37 -102t-12 -91q0 -21 15 -43.5t40 -22.5zM225 794q-5 17 -6 45t-1 54v40v9.5t1 8.5l374 32l16 -162l-151 -9q-50 -3 -88.5 -6t-73 -5.5t-71.5 -6.5z" />
    <glyph glyph-name="uni01EA" unicode="&#x1ea;" 
d="M181 -4q-66 0 -108 51t-42 154q0 57 14 120t39 124t58 113q53 84 122 137t145 53q60 0 92.5 -30.5t45.5 -78t13 -98.5q0 -119 -36.5 -221.5t-94.5 -173.5q-58 -73 -123.5 -111.5t-124.5 -38.5zM235 161q45 0 79.5 30t58.5 76.5t36 97.5t12 92q0 16 -3 34.5t-13 32.5
t-31 14q-46 0 -83 -33.5t-62 -84.5q-25 -52 -37 -102t-12 -91q0 -21 15 -43.5t40 -22.5zM258 -134q-58 0 -96.5 28t-38.5 69q0 39 40 78q2 0 17 3t43 6q-2 -9 -3 -16.5t-1 -13.5q0 -25 14.5 -41t35.5 -16q28 0 53 28l20 -88q-16 -19 -38.5 -28t-45.5 -9z" />
    <glyph glyph-name="Oslash" unicode="&#xd8;" 
d="M49 -8l-50 48l48 56q-16 44 -16 105q0 57 14 120t39 124t58 113q53 84 122 137t145 53q39 0 66 -14t45 -38l35 46l51 -38l17 20l-73 -94q5 -22 7.5 -44.5t2.5 -44.5q0 -119 -36.5 -221.5t-94.5 -173.5q-58 -73 -123.5 -111.5t-124.5 -38.5q-60 0 -99 39zM175 246l238 287
q-25 43 -59 43q-32 0 -64 -29.5t-58.5 -76.5t-42.5 -100t-16 -99q0 -6 0.5 -12.5t1.5 -12.5zM247 168q41 0 77.5 31.5t61.5 78.5q26 48 39.5 93.5t13.5 85.5q0 8 -0.5 15t-1.5 12l-241 -303q25 -13 51 -13z" />
    <glyph glyph-name="Oslashacute" unicode="&#x1fe;" 
d="M49 -8l-50 48l48 56q-16 44 -16 105q0 57 14 120t39 124t58 113q53 84 122 137t145 53q39 0 66 -14t45 -38l35 46l51 -38l17 20l-73 -94q5 -22 7.5 -44.5t2.5 -44.5q0 -119 -36.5 -221.5t-94.5 -173.5q-58 -73 -123.5 -111.5t-124.5 -38.5q-60 0 -99 39zM175 246l238 287
q-25 43 -59 43q-32 0 -64 -29.5t-58.5 -76.5t-42.5 -100t-16 -99q0 -6 0.5 -12.5t1.5 -12.5zM247 168q41 0 77.5 31.5t61.5 78.5q26 48 39.5 93.5t13.5 85.5q0 8 -0.5 15t-1.5 12l-241 -303q25 -13 51 -13zM331 777q-1 5 -1 10.5v9.5v18v16.5t1 16.5v34q34 35 66 65.5
t62 57.5t58 55t54 56q5 -68 6 -125q0 -29 2 -58.5t6 -60.5q-29 -12 -61 -24t-66 -24q-34 -13 -66 -24.5t-61 -22.5z" />
    <glyph glyph-name="Otilde" unicode="&#xd5;" 
d="M181 -4q-66 0 -108 51t-42 154q0 57 14 120t39 124t58 113q53 84 122 137t145 53q60 0 92.5 -30.5t45.5 -78t13 -98.5q0 -119 -36.5 -221.5t-94.5 -173.5q-58 -73 -123.5 -111.5t-124.5 -38.5zM235 161q45 0 79.5 30t58.5 76.5t36 97.5t12 92q0 16 -3 34.5t-13 32.5
t-31 14q-46 0 -83 -33.5t-62 -84.5q-25 -52 -37 -102t-12 -91q0 -21 15 -43.5t40 -22.5zM290 796q-13 9 -31 23.5t-23 20.5l12.5 25.5t37.5 62.5q23 35 54.5 62t68.5 27q23 0 41.5 -13t32.5 -30t23.5 -30t13.5 -13q20 0 38 17.5t35 39t30 33.5q6 -4 11.5 -8.5t10.5 -8.5
t9.5 -7.5t8.5 -6.5t7.5 -6t6.5 -7q-21 -49 -48 -87q-20 -31 -54 -58.5t-72 -27.5q-24 0 -37 10.5t-22 23.5t-20 23.5t-32 10.5q-19 0 -37.5 -14t-35 -32t-29.5 -30z" />
    <glyph glyph-name="uni022C" unicode="&#x22c;" 
d="M181 -4q-66 0 -108 51t-42 154q0 57 14 120t39 124t58 113q53 84 122 137t145 53q60 0 92.5 -30.5t45.5 -78t13 -98.5q0 -119 -36.5 -221.5t-94.5 -173.5q-58 -73 -123.5 -111.5t-124.5 -38.5zM235 161q45 0 79.5 30t58.5 76.5t36 97.5t12 92q0 16 -3 34.5t-13 32.5
t-31 14q-46 0 -83 -33.5t-62 -84.5q-25 -52 -37 -102t-12 -91q0 -21 15 -43.5t40 -22.5zM290 796q-13 9 -31 23.5t-23 20.5l12.5 25.5t37.5 62.5q23 35 54.5 62t68.5 27q23 0 41.5 -13t32.5 -30t23.5 -30t13.5 -13q20 0 38 17.5t35 39t30 33.5q6 -4 11.5 -8.5t10.5 -8.5
t9.5 -7.5t8.5 -6.5t7.5 -6t6.5 -7q-21 -49 -48 -87q-20 -31 -54 -58.5t-72 -27.5q-24 0 -37 10.5t-22 23.5t-20 23.5t-32 10.5q-19 0 -37.5 -14t-35 -32t-29.5 -30zM267 1065q-5 17 -6 45t-1 54v40v9.5t1 8.5l374 32l16 -162l-151 -9q-50 -3 -88.5 -6t-73 -5.5t-71.5 -6.5z
" />
    <glyph glyph-name="OE" unicode="&#x152;" horiz-adv-x="561" 
d="M248 10q-77 0 -124 30.5t-68 81.5t-21 112q0 74 27.5 157t76.5 155q48 71 113.5 119.5t136.5 54.5l286 19q-7 -22 -12 -45q-5 -19 -10 -39.5t-7 -36.5h-12q-21 0 -53 3q-16 1 -31 1.5t-29 0.5l-35 -180q9 -1 18 -1h17q8 -1 16 -1h16h47q-2 -14 -3.5 -27.5t-3.5 -27.5
l-9 -55h-8q-2 -1 -5 -1h-5q-25 0 -48 1.5t-45 2.5l-35 -185l123 16l-10 -114l-293 -41h-10zM270 171h8q6 0 9 1l69 374q-32 -5 -63.5 -33t-57.5 -69t-41.5 -87t-15.5 -87q0 -42 21.5 -70.5t70.5 -28.5z" />
    <glyph glyph-name="P" unicode="P" horiz-adv-x="379" 
d="M-3 -1q30 135 57 264q11 52 22.5 111.5t23.5 120.5t22 115.5t16 95.5q40 12 86.5 22t83.5 10q60 0 95 -25.5t50 -68.5t15 -94q0 -56 -20.5 -107.5t-55 -92.5t-79 -65t-92.5 -24h-11q-8 -34 -15 -74t-12 -74q-4 -20 -7 -40l-6 -40zM230 366q23 6 46 30.5t38 62.5t15 83
q0 37 -16.5 56t-36.5 19q-11 -66 -22 -125t-24 -126z" />
    <glyph glyph-name="Thorn" unicode="&#xde;" horiz-adv-x="386" 
d="M1 -1q30 143 57 276q14 75 29.5 156t30 158.5t24.5 140.5q73 9 117 13.5t49 4.5l-21 -100q63 0 100 -27t53 -71t16 -95q0 -56 -21 -107t-56 -91t-79 -63t-91 -23h-11q-4 -17 -7 -31.5t-5 -27.5l-7 -44q-2 -10 -3 -18.5t-2 -16.5zM219 276q23 6 45.5 30.5t37.5 62.5t15 83
q0 37 -16.5 56t-35.5 19l-23 -125q-5 -29 -11 -60.5t-12 -65.5z" />
    <glyph glyph-name="Q" unicode="Q" horiz-adv-x="525" 
d="M451 -48q-10 14 -20 28.5t-21 28.5t-21.5 29t-20.5 30l-5 8q-94 -80 -182 -80q-66 0 -108 51t-42 154q0 57 14 120t39 124t58 113q53 84 122 137t145 53q60 0 92.5 -30.5t45.5 -78t13 -98.5q0 -98 -24 -180.5t-62 -148.5l95 -112l-22 -28l-22 -28q-18 -23 -38.5 -48.5
t-35.5 -43.5zM235 161q36 0 64 19l-40 66q21 16 37.5 28.5t27.5 21.5t19 15.5t13 10.5l14 12l22 -25q13 37 21 76t8 72q0 16 -3 34.5t-13 32.5t-31 14q-46 0 -83 -33.5t-62 -84.5q-25 -52 -37 -102t-12 -91q0 -21 15 -43.5t40 -22.5z" />
    <glyph glyph-name="R" unicode="R" horiz-adv-x="444" 
d="M4 -1l52 260q12 72 26 148t26.5 150t19.5 139q57 18 123 26.5t131 8.5q76 0 103.5 -33t27.5 -89q0 -51 -24 -102.5t-62.5 -93t-84.5 -65.5q18 -40 38.5 -87.5t38.5 -90.5q10 -25 20.5 -50t20.5 -50l-155 -54q-10 35 -19 67t-17 63q-10 37 -19 71.5t-15.5 61.5t-7.5 38
l-13 -4q-6 -32 -14.5 -78t-15.5 -89l-18 -105zM239 433q18 2 44.5 15.5t53 33.5t44.5 41t18 37q0 20 -23.5 26.5t-61.5 6.5h-22q-6 -1 -11 -1h-10z" />
    <glyph glyph-name="Racute" unicode="&#x154;" horiz-adv-x="444" 
d="M4 -1l52 260q12 72 26 148t26.5 150t19.5 139q57 18 123 26.5t131 8.5q76 0 103.5 -33t27.5 -89q0 -51 -24 -102.5t-62.5 -93t-84.5 -65.5q18 -40 38.5 -87.5t38.5 -90.5q10 -25 20.5 -50t20.5 -50l-155 -54q-10 35 -19 67t-17 63q-10 37 -19 71.5t-15.5 61.5t-7.5 38
l-13 -4q-6 -32 -14.5 -78t-15.5 -89l-18 -105zM239 433q18 2 44.5 15.5t53 33.5t44.5 41t18 37q0 20 -23.5 26.5t-61.5 6.5h-22q-6 -1 -11 -1h-10zM290 750q-1 5 -1 10.5v9.5v18v16.5t1 16.5v34q34 35 66 65.5t62 57.5t58 55t54 56q5 -68 6 -125q0 -29 2 -58.5t6 -60.5
q-29 -12 -61 -24t-66 -24q-34 -13 -66 -24.5t-61 -22.5z" />
    <glyph glyph-name="Rcaron" unicode="&#x158;" horiz-adv-x="444" 
d="M4 -1l52 260q12 72 26 148t26.5 150t19.5 139q57 18 123 26.5t131 8.5q76 0 103.5 -33t27.5 -89q0 -51 -24 -102.5t-62.5 -93t-84.5 -65.5q18 -40 38.5 -87.5t38.5 -90.5q10 -25 20.5 -50t20.5 -50l-155 -54q-10 35 -19 67t-17 63q-10 37 -19 71.5t-15.5 61.5t-7.5 38
l-13 -4q-6 -32 -14.5 -78t-15.5 -89l-18 -105zM239 433q18 2 44.5 15.5t53 33.5t44.5 41t18 37q0 20 -23.5 26.5t-61.5 6.5h-22q-6 -1 -11 -1h-10zM359 756q-13 1 -24 1.5t-18 0.5h-16q-4 -1 -10 -1q-4 0 -4 1q-4 13 -9.5 28.5t-10.5 32.5q-6 17 -12 33t-11 32l-12 36
t-13 37l22 21q5 5 11 10l12 10l24 20l67 -115q17 19 39.5 46t41.5 50t24 29q13 -11 23 -20t18 -17l16 -15q-13 -22 -26.5 -42.5t-27.5 -40.5q-23 -34 -51 -72t-53 -65z" />
    <glyph glyph-name="uni0156" unicode="&#x156;" horiz-adv-x="444" 
d="M4 -1l52 260q12 72 26 148t26.5 150t19.5 139q57 18 123 26.5t131 8.5q76 0 103.5 -33t27.5 -89q0 -51 -24 -102.5t-62.5 -93t-84.5 -65.5q18 -40 38.5 -87.5t38.5 -90.5q10 -25 20.5 -50t20.5 -50l-155 -54q-10 35 -19 67t-17 63q-10 37 -19 71.5t-15.5 61.5t-7.5 38
l-13 -4q-6 -32 -14.5 -78t-15.5 -89l-18 -105zM239 433q18 2 44.5 15.5t53 33.5t44.5 41t18 37q0 20 -23.5 26.5t-61.5 6.5h-22q-6 -1 -11 -1h-10zM89 -271q10 51 15 82t8 56.5t7 57.5h26q8 -1 5 -1t1 0q30 0 47 0.5t35 1t47 1.5q-7 -34 -12 -55.5t-10.5 -40t-12.5 -42
t-19 -60.5h-137z" />
    <glyph glyph-name="uni0210" unicode="&#x210;" horiz-adv-x="444" 
d="M4 -1l52 260q12 72 26 148t26.5 150t19.5 139q57 18 123 26.5t131 8.5q76 0 103.5 -33t27.5 -89q0 -51 -24 -102.5t-62.5 -93t-84.5 -65.5q18 -40 38.5 -87.5t38.5 -90.5q10 -25 20.5 -50t20.5 -50l-155 -54q-10 35 -19 67t-17 63q-10 37 -19 71.5t-15.5 61.5t-7.5 38
l-13 -4q-6 -32 -14.5 -78t-15.5 -89l-18 -105zM239 433q18 2 44.5 15.5t53 33.5t44.5 41t18 37q0 20 -23.5 26.5t-61.5 6.5h-22q-6 -1 -11 -1h-10zM333 732l-50 12t-48 12q-41 9 -84 20.5t-72 20.5q6 29 14 70.5t15 80.5l18 94q20 -21 39.5 -41.5t38.5 -40.5
q33 -35 70.5 -75t65.5 -72zM622 707l-50 12t-48 12q-41 9 -84 20.5t-72 20.5q6 29 14 70.5t15 80.5l18 94q20 -21 39.5 -41.5t38.5 -40.5q33 -35 70.5 -75t65.5 -72z" />
    <glyph glyph-name="uni0212" unicode="&#x212;" horiz-adv-x="444" 
d="M4 -1l52 260q12 72 26 148t26.5 150t19.5 139q57 18 123 26.5t131 8.5q76 0 103.5 -33t27.5 -89q0 -51 -24 -102.5t-62.5 -93t-84.5 -65.5q18 -40 38.5 -87.5t38.5 -90.5q10 -25 20.5 -50t20.5 -50l-155 -54q-10 35 -19 67t-17 63q-10 37 -19 71.5t-15.5 61.5t-7.5 38
l-13 -4q-6 -32 -14.5 -78t-15.5 -89l-18 -105zM239 433q18 2 44.5 15.5t53 33.5t44.5 41t18 37q0 20 -23.5 26.5t-61.5 6.5h-22q-6 -1 -11 -1h-10zM394 977q37 0 65.5 -26.5t44 -66.5t12.5 -83l-22 -20q-5 -4 -11 -9t-11 -10q-6 -5 -12 -10.5t-13 -10.5q1 25 -6.5 49.5
t-21.5 41.5t-33 17q-31 0 -48 -14q-16 -15 -29.5 -39t-33.5 -65q-13 11 -23 19.5t-18 16.5l-16 16q10 46 34 90.5t60 74t82 29.5z" />
    <glyph glyph-name="S" unicode="S" horiz-adv-x="430" 
d="M171 -2q-40 0 -80 21.5t-77 68.5l74 145q11 -19 32.5 -36t45.5 -27t41 -10q26 0 49.5 16t23.5 43q0 35 -32 64t-72 57q-39 28 -71.5 63.5t-32.5 81.5q0 52 30 96.5t78 78t102.5 52t103.5 18.5q35 0 65 -11.5t48 -37.5t18 -70q0 -7 -0.5 -14t-1.5 -14t-2.5 -14.5
t-2.5 -15.5l-145 -42q2 8 3.5 16t1.5 16q0 30 -10.5 43.5t-27.5 13.5q-9 0 -26 -9.5t-30.5 -26t-13.5 -36.5q0 -33 27.5 -54.5t63.5 -43.5q17 -10 38 -31.5t36.5 -58t15.5 -93.5q0 -74 -36.5 -130t-98.5 -87.5t-137 -31.5z" />
    <glyph glyph-name="Sacute" unicode="&#x15a;" horiz-adv-x="430" 
d="M171 -2q-40 0 -80 21.5t-77 68.5l74 145q11 -19 32.5 -36t45.5 -27t41 -10q26 0 49.5 16t23.5 43q0 35 -32 64t-72 57q-39 28 -71.5 63.5t-32.5 81.5q0 52 30 96.5t78 78t102.5 52t103.5 18.5q35 0 65 -11.5t48 -37.5t18 -70q0 -7 -0.5 -14t-1.5 -14t-2.5 -14.5
t-2.5 -15.5l-145 -42q2 8 3.5 16t1.5 16q0 30 -10.5 43.5t-27.5 13.5q-9 0 -26 -9.5t-30.5 -26t-13.5 -36.5q0 -33 27.5 -54.5t63.5 -43.5q17 -10 38 -31.5t36.5 -58t15.5 -93.5q0 -74 -36.5 -130t-98.5 -87.5t-137 -31.5zM290 750q-1 5 -1 10.5v9.5v18v16.5t1 16.5v34
q34 35 66 65.5t62 57.5t58 55t54 56q5 -68 6 -125q0 -29 2 -58.5t6 -60.5q-29 -12 -61 -24t-66 -24q-34 -13 -66 -24.5t-61 -22.5z" />
    <glyph glyph-name="Scaron" unicode="&#x160;" horiz-adv-x="430" 
d="M171 -2q-40 0 -80 21.5t-77 68.5l74 145q11 -19 32.5 -36t45.5 -27t41 -10q26 0 49.5 16t23.5 43q0 35 -32 64t-72 57q-39 28 -71.5 63.5t-32.5 81.5q0 52 30 96.5t78 78t102.5 52t103.5 18.5q35 0 65 -11.5t48 -37.5t18 -70q0 -7 -0.5 -14t-1.5 -14t-2.5 -14.5
t-2.5 -15.5l-145 -42q2 8 3.5 16t1.5 16q0 30 -10.5 43.5t-27.5 13.5q-9 0 -26 -9.5t-30.5 -26t-13.5 -36.5q0 -33 27.5 -54.5t63.5 -43.5q17 -10 38 -31.5t36.5 -58t15.5 -93.5q0 -74 -36.5 -130t-98.5 -87.5t-137 -31.5zM359 756q-13 1 -24 1.5t-18 0.5h-16q-4 -1 -10 -1
q-4 0 -4 1q-4 13 -9.5 28.5t-10.5 32.5q-6 17 -12 33t-11 32l-12 36t-13 37l22 21q5 5 11 10l12 10l24 20l67 -115q17 19 39.5 46t41.5 50t24 29q13 -11 23 -20t18 -17l16 -15q-13 -22 -26.5 -42.5t-27.5 -40.5q-23 -34 -51 -72t-53 -65z" />
    <glyph glyph-name="Scedilla" unicode="&#x15e;" horiz-adv-x="430" 
d="M171 -2q-40 0 -80 21.5t-77 68.5l74 145q11 -19 32.5 -36t45.5 -27t41 -10q26 0 49.5 16t23.5 43q0 35 -32 64t-72 57q-39 28 -71.5 63.5t-32.5 81.5q0 52 30 96.5t78 78t102.5 52t103.5 18.5q35 0 65 -11.5t48 -37.5t18 -70q0 -7 -0.5 -14t-1.5 -14t-2.5 -14.5
t-2.5 -15.5l-145 -42q2 8 3.5 16t1.5 16q0 30 -10.5 43.5t-27.5 13.5q-9 0 -26 -9.5t-30.5 -26t-13.5 -36.5q0 -33 27.5 -54.5t63.5 -43.5q17 -10 38 -31.5t36.5 -58t15.5 -93.5q0 -74 -36.5 -130t-98.5 -87.5t-137 -31.5zM190 -155q-24 0 -46.5 9t-37.5 28l19 88
q25 -28 53 -28q22 0 36.5 16t14.5 41q0 6 -1.5 13.5t-3.5 16.5q28 -3 43 -6t18 -3q40 -39 40 -78q0 -28 -18.5 -50t-49 -34.5t-67.5 -12.5z" />
    <glyph glyph-name="Scircumflex" unicode="&#x15c;" horiz-adv-x="430" 
d="M171 -2q-40 0 -80 21.5t-77 68.5l74 145q11 -19 32.5 -36t45.5 -27t41 -10q26 0 49.5 16t23.5 43q0 35 -32 64t-72 57q-39 28 -71.5 63.5t-32.5 81.5q0 52 30 96.5t78 78t102.5 52t103.5 18.5q35 0 65 -11.5t48 -37.5t18 -70q0 -7 -0.5 -14t-1.5 -14t-2.5 -14.5
t-2.5 -15.5l-145 -42q2 8 3.5 16t1.5 16q0 30 -10.5 43.5t-27.5 13.5q-9 0 -26 -9.5t-30.5 -26t-13.5 -36.5q0 -33 27.5 -54.5t63.5 -43.5q17 -10 38 -31.5t36.5 -58t15.5 -93.5q0 -74 -36.5 -130t-98.5 -87.5t-137 -31.5zM299 750q-13 11 -23 20.5t-16 17.5q-4 5 -8 9t-7 8
q14 20 28.5 40.5t29.5 39.5q25 33 54.5 69t55.5 62q20 -3 33.5 -4.5t21.5 -0.5q15 1 17 -1q4 -13 8.5 -29t9.5 -33l18 -66q5 -19 11 -37t11 -37l-24 -20q-5 -4 -10.5 -8.5t-12.5 -9.5l-25 -19l-61 118q-20 -18 -42 -41.5t-40 -44.5t-29 -33z" />
    <glyph glyph-name="uni0218" unicode="&#x218;" horiz-adv-x="430" 
d="M171 -2q-40 0 -80 21.5t-77 68.5l74 145q11 -19 32.5 -36t45.5 -27t41 -10q26 0 49.5 16t23.5 43q0 35 -32 64t-72 57q-39 28 -71.5 63.5t-32.5 81.5q0 52 30 96.5t78 78t102.5 52t103.5 18.5q35 0 65 -11.5t48 -37.5t18 -70q0 -7 -0.5 -14t-1.5 -14t-2.5 -14.5
t-2.5 -15.5l-145 -42q2 8 3.5 16t1.5 16q0 30 -10.5 43.5t-27.5 13.5q-9 0 -26 -9.5t-30.5 -26t-13.5 -36.5q0 -33 27.5 -54.5t63.5 -43.5q17 -10 38 -31.5t36.5 -58t15.5 -93.5q0 -74 -36.5 -130t-98.5 -87.5t-137 -31.5zM81 -261q10 51 15 82t8 56.5t7 57.5h26q8 -1 5 -1
t1 0q30 0 47 0.5t35 1t47 1.5q-7 -34 -12 -55.5t-10.5 -40t-12.5 -42t-19 -60.5h-137z" />
    <glyph glyph-name="uni1E9E" unicode="&#x1e9e;" horiz-adv-x="625" 
d="M33 10l109 504q15 67 43.5 118t78.5 80t128 29q49 0 96.5 -25t82 -67t45.5 -93l-3 -33l-63 -46q25 -33 44 -74t30 -82t11 -74q0 -83 -32 -135.5t-80.5 -77.5t-98.5 -26q-36 0 -71 14.5t-60.5 35.5t-33.5 40l65 145q11 -37 36.5 -61.5t51.5 -24.5q28 0 47.5 20t19.5 54
q0 32 -14.5 69t-34.5 70t-38 50l96 84q-10 40 -39.5 70t-71.5 30q-35 0 -57.5 -26.5t-36.5 -98.5l-84 -450z" />
    <glyph glyph-name="T" unicode="T" horiz-adv-x="362" 
d="M90 -1q11 55 22.5 109.5t21.5 107.5q38 190 62 364q-11 2 -23 2.5t-23 -0.5q-24 -2 -47 6q1 8 1 17.5v19.5v21.5t1 20.5q1 11 1 23.5t1 25.5q26 -2 52 -3t52 -1q74 0 141.5 5t124.5 12l-11 -54l-9 -47q-5 -26 -9 -41q-11 -3 -22 -5t-22 -3t-22.5 -3t-22.5 -4
q-15 -74 -24.5 -128t-17 -103.5t-17.5 -108.5q-17 -101 -30 -205z" />
    <glyph glyph-name="Tbar" unicode="&#x166;" horiz-adv-x="377" 
d="M90 -1q11 55 22.5 109.5t21.5 107.5q3 13 5 25q-24 0 -48.5 -1t-46.5 -1l48 177q21 -1 40.5 -1.5t37.5 -1.5q15 86 26 167q-11 2 -23 2.5t-23 -0.5q-24 -2 -47 6q1 8 1 17.5v19.5v21.5t1 20.5q1 11 1 23.5t1 25.5q26 -2 52 -3t52 -1q74 0 141.5 5t124.5 12l-11 -54
l-9 -47q-5 -26 -9 -41q-11 -3 -22 -5t-22 -3t-22.5 -3t-22.5 -4q-10 -48 -17 -86.5t-13 -72.5q18 1 36.5 2t36.5 2l-34 -179q-17 0 -34 0.5t-33 1.5q0 -4 -1 -8q-17 -101 -30 -205z" />
    <glyph glyph-name="Tcaron" unicode="&#x164;" horiz-adv-x="362" 
d="M90 -1q11 55 22.5 109.5t21.5 107.5q38 190 62 364q-11 2 -23 2.5t-23 -0.5q-24 -2 -47 6q1 8 1 17.5v19.5v21.5t1 20.5q1 11 1 23.5t1 25.5q26 -2 52 -3t52 -1q74 0 141.5 5t124.5 12l-11 -54l-9 -47q-5 -26 -9 -41q-11 -3 -22 -5t-22 -3t-22.5 -3t-22.5 -4
q-15 -74 -24.5 -128t-17 -103.5t-17.5 -108.5q-17 -101 -30 -205zM313 756q-13 1 -24 1.5t-18 0.5h-16q-4 -1 -10 -1q-4 0 -4 1q-4 13 -9.5 28.5t-10.5 32.5q-6 17 -12 33t-11 32l-12 36t-13 37l22 21q5 5 11 10l12 10l24 20l67 -115q17 19 39.5 46t41.5 50t24 29
q13 -11 23 -20t18 -17l16 -15q-13 -22 -26.5 -42.5t-27.5 -40.5q-23 -34 -51 -72t-53 -65z" />
    <glyph glyph-name="uni0162" unicode="&#x162;" horiz-adv-x="362" 
d="M90 -1q11 55 22.5 109.5t21.5 107.5q38 190 62 364q-11 2 -23 2.5t-23 -0.5q-24 -2 -47 6q1 8 1 17.5v19.5v21.5t1 20.5q1 11 1 23.5t1 25.5q26 -2 52 -3t52 -1q74 0 141.5 5t124.5 12l-11 -54l-9 -47q-5 -26 -9 -41q-11 -3 -22 -5t-22 -3t-22.5 -3t-22.5 -4
q-15 -74 -24.5 -128t-17 -103.5t-17.5 -108.5q-17 -101 -30 -205zM147 -147q-24 0 -46.5 9t-37.5 28l19 88q25 -28 53 -28q22 0 36.5 16t14.5 41q0 6 -1.5 13.5t-3.5 16.5q28 -3 43 -6t18 -3q40 -39 40 -78q0 -28 -18.5 -50t-49 -34.5t-67.5 -12.5z" />
    <glyph glyph-name="uni021A" unicode="&#x21a;" horiz-adv-x="362" 
d="M90 -1q11 55 22.5 109.5t21.5 107.5q38 190 62 364q-11 2 -23 2.5t-23 -0.5q-24 -2 -47 6q1 8 1 17.5v19.5v21.5t1 20.5q1 11 1 23.5t1 25.5q26 -2 52 -3t52 -1q74 0 141.5 5t124.5 12l-11 -54l-9 -47q-5 -26 -9 -41q-11 -3 -22 -5t-22 -3t-22.5 -3t-22.5 -4
q-15 -74 -24.5 -128t-17 -103.5t-17.5 -108.5q-17 -101 -30 -205zM38 -253q10 51 15 82t8 56.5t7 57.5h26q8 -1 5 -1t1 0q30 0 47 0.5t35 1t47 1.5q-7 -34 -12 -55.5t-10.5 -40t-12.5 -42t-19 -60.5h-137z" />
    <glyph glyph-name="U" unicode="U" horiz-adv-x="419" 
d="M165 -18q-30 0 -61 13t-52 40t-21 69v8q0 5 1 8q3 26 8.5 68t13.5 91.5t16.5 98.5t15.5 89q15 80 24 129t14.5 75.5t8.5 39.5l165 16q-13 -61 -24.5 -115.5t-21.5 -103.5l-46 -221q-6 -25 -9 -42q-4 -16 -8.5 -40.5t-4.5 -44.5q0 -16 8 -26.5t20 -10.5q17 0 28 13t18 32
t11 38.5t7 31.5q10 46 18.5 89.5t18 92.5t21.5 113q8 44 16.5 89.5t16.5 92.5l152 10l-35 -193q-7 -37 -15.5 -83t-18.5 -93t-18.5 -89t-15.5 -72q-20 -82 -62 -128.5t-92.5 -65.5t-96.5 -19z" />
    <glyph glyph-name="Uacute" unicode="&#xda;" horiz-adv-x="419" 
d="M165 -18q-30 0 -61 13t-52 40t-21 69v8q0 5 1 8q3 26 8.5 68t13.5 91.5t16.5 98.5t15.5 89q15 80 24 129t14.5 75.5t8.5 39.5l165 16q-13 -61 -24.5 -115.5t-21.5 -103.5l-46 -221q-6 -25 -9 -42q-4 -16 -8.5 -40.5t-4.5 -44.5q0 -16 8 -26.5t20 -10.5q17 0 28 13t18 32
t11 38.5t7 31.5q10 46 18.5 89.5t18 92.5t21.5 113q8 44 16.5 89.5t16.5 92.5l152 10l-35 -193q-7 -37 -15.5 -83t-18.5 -93t-18.5 -89t-15.5 -72q-20 -82 -62 -128.5t-92.5 -65.5t-96.5 -19zM279 759q-1 5 -1 10.5v9.5v18v16.5t1 16.5v34q34 35 66 65.5t62 57.5t58 55
t54 56q5 -68 6 -125q0 -29 2 -58.5t6 -60.5q-29 -12 -61 -24t-66 -24q-34 -13 -66 -24.5t-61 -22.5z" />
    <glyph glyph-name="Ubreve" unicode="&#x16c;" horiz-adv-x="419" 
d="M165 -18q-30 0 -61 13t-52 40t-21 69v8q0 5 1 8q3 26 8.5 68t13.5 91.5t16.5 98.5t15.5 89q15 80 24 129t14.5 75.5t8.5 39.5l165 16q-13 -61 -24.5 -115.5t-21.5 -103.5l-46 -221q-6 -25 -9 -42q-4 -16 -8.5 -40.5t-4.5 -44.5q0 -16 8 -26.5t20 -10.5q17 0 28 13t18 32
t11 38.5t7 31.5q10 46 18.5 89.5t18 92.5t21.5 113q8 44 16.5 89.5t16.5 92.5l152 10l-35 -193q-7 -37 -15.5 -83t-18.5 -93t-18.5 -89t-15.5 -72q-20 -82 -62 -128.5t-92.5 -65.5t-96.5 -19zM370 779q-36 0 -65 26.5t-44 67t-13 82.5l22 20q5 5 11 10l12 10q5 5 11 10
t13 10q-1 -24 6.5 -49t21.5 -42t33 -17q33 0 49 15q17 14 29.5 38t32.5 65q13 -11 23 -19.5t18 -16.5l16 -16q-9 -45 -33.5 -90t-60.5 -74.5t-82 -29.5z" />
    <glyph glyph-name="Ucircumflex" unicode="&#xdb;" horiz-adv-x="419" 
d="M165 -18q-30 0 -61 13t-52 40t-21 69v8q0 5 1 8q3 26 8.5 68t13.5 91.5t16.5 98.5t15.5 89q15 80 24 129t14.5 75.5t8.5 39.5l165 16q-13 -61 -24.5 -115.5t-21.5 -103.5l-46 -221q-6 -25 -9 -42q-4 -16 -8.5 -40.5t-4.5 -44.5q0 -16 8 -26.5t20 -10.5q17 0 28 13t18 32
t11 38.5t7 31.5q10 46 18.5 89.5t18 92.5t21.5 113q8 44 16.5 89.5t16.5 92.5l152 10l-35 -193q-7 -37 -15.5 -83t-18.5 -93t-18.5 -89t-15.5 -72q-20 -82 -62 -128.5t-92.5 -65.5t-96.5 -19zM288 759q-13 11 -23 20.5t-16 17.5q-4 5 -8 9t-7 8q14 20 28.5 40.5t29.5 39.5
q25 33 54.5 69t55.5 62q20 -3 33.5 -4.5t21.5 -0.5q15 1 17 -1q4 -13 8.5 -29t9.5 -33l18 -66q5 -19 11 -37t11 -37l-24 -20q-5 -4 -10.5 -8.5t-12.5 -9.5l-25 -19l-61 118q-20 -18 -42 -41.5t-40 -44.5t-29 -33z" />
    <glyph glyph-name="uni0214" unicode="&#x214;" horiz-adv-x="419" 
d="M165 -18q-30 0 -61 13t-52 40t-21 69v8q0 5 1 8q3 26 8.5 68t13.5 91.5t16.5 98.5t15.5 89q15 80 24 129t14.5 75.5t8.5 39.5l165 16q-13 -61 -24.5 -115.5t-21.5 -103.5l-46 -221q-6 -25 -9 -42q-4 -16 -8.5 -40.5t-4.5 -44.5q0 -16 8 -26.5t20 -10.5q17 0 28 13t18 32
t11 38.5t7 31.5q10 46 18.5 89.5t18 92.5t21.5 113q8 44 16.5 89.5t16.5 92.5l152 10l-35 -193q-7 -37 -15.5 -83t-18.5 -93t-18.5 -89t-15.5 -72q-20 -82 -62 -128.5t-92.5 -65.5t-96.5 -19zM322 741l-50 12t-48 12q-41 9 -84 20.5t-72 20.5q6 29 14 70.5t15 80.5l18 94
q20 -21 39.5 -41.5t38.5 -40.5q33 -35 70.5 -75t65.5 -72zM611 716l-50 12t-48 12q-41 9 -84 20.5t-72 20.5q6 29 14 70.5t15 80.5l18 94q20 -21 39.5 -41.5t38.5 -40.5q33 -35 70.5 -75t65.5 -72z" />
    <glyph glyph-name="Udieresis" unicode="&#xdc;" horiz-adv-x="419" 
d="M165 -18q-30 0 -61 13t-52 40t-21 69v8q0 5 1 8q3 26 8.5 68t13.5 91.5t16.5 98.5t15.5 89q15 80 24 129t14.5 75.5t8.5 39.5l165 16q-13 -61 -24.5 -115.5t-21.5 -103.5l-46 -221q-6 -25 -9 -42q-4 -16 -8.5 -40.5t-4.5 -44.5q0 -16 8 -26.5t20 -10.5q17 0 28 13t18 32
t11 38.5t7 31.5q10 46 18.5 89.5t18 92.5t21.5 113q8 44 16.5 89.5t16.5 92.5l152 10l-35 -193q-7 -37 -15.5 -83t-18.5 -93t-18.5 -89t-15.5 -72q-20 -82 -62 -128.5t-92.5 -65.5t-96.5 -19zM489 823q-40 0 -60 26.5t-20 59.5q0 35 23.5 62t67.5 27q48 0 72 -25t24 -56
q0 -34 -27.5 -64t-79.5 -30zM257 823q-40 0 -60 26.5t-20 59.5q0 34 22.5 61.5t67.5 27.5q49 0 72.5 -25t23.5 -56q0 -39 -29.5 -66.5t-76.5 -27.5z" />
    <glyph glyph-name="uni1EE4" unicode="&#x1ee4;" horiz-adv-x="419" 
d="M165 -18q-30 0 -61 13t-52 40t-21 69v8q0 5 1 8q3 26 8.5 68t13.5 91.5t16.5 98.5t15.5 89q15 80 24 129t14.5 75.5t8.5 39.5l165 16q-13 -61 -24.5 -115.5t-21.5 -103.5l-46 -221q-6 -25 -9 -42q-4 -16 -8.5 -40.5t-4.5 -44.5q0 -16 8 -26.5t20 -10.5q17 0 28 13t18 32
t11 38.5t7 31.5q10 46 18.5 89.5t18 92.5t21.5 113q8 44 16.5 89.5t16.5 92.5l152 10l-35 -193q-7 -37 -15.5 -83t-18.5 -93t-18.5 -89t-15.5 -72q-20 -82 -62 -128.5t-92.5 -65.5t-96.5 -19zM176 -205q-40 0 -60 26t-20 60q0 32 22 60.5t68 28.5q49 0 72.5 -25t23.5 -57
q0 -35 -27.5 -64t-78.5 -29z" />
    <glyph glyph-name="Ugrave" unicode="&#xd9;" horiz-adv-x="419" 
d="M165 -18q-30 0 -61 13t-52 40t-21 69v8q0 5 1 8q3 26 8.5 68t13.5 91.5t16.5 98.5t15.5 89q15 80 24 129t14.5 75.5t8.5 39.5l165 16q-13 -61 -24.5 -115.5t-21.5 -103.5l-46 -221q-6 -25 -9 -42q-4 -16 -8.5 -40.5t-4.5 -44.5q0 -16 8 -26.5t20 -10.5q17 0 28 13t18 32
t11 38.5t7 31.5q10 46 18.5 89.5t18 92.5t21.5 113q8 44 16.5 89.5t16.5 92.5l152 10l-35 -193q-7 -37 -15.5 -83t-18.5 -93t-18.5 -89t-15.5 -72q-20 -82 -62 -128.5t-92.5 -65.5t-96.5 -19zM396 761l-50 12t-48 12q-41 9 -84 20.5t-72 20.5q6 29 14 70.5t15 80.5l18 94
q20 -21 39.5 -41.5t38.5 -40.5q33 -35 70.5 -75t65.5 -72z" />
    <glyph glyph-name="uni1EE6" unicode="&#x1ee6;" horiz-adv-x="419" 
d="M165 -18q-30 0 -61 13t-52 40t-21 69v8q0 5 1 8q3 26 8.5 68t13.5 91.5t16.5 98.5t15.5 89q15 80 24 129t14.5 75.5t8.5 39.5l165 16q-13 -61 -24.5 -115.5t-21.5 -103.5l-46 -221q-6 -25 -9 -42q-4 -16 -8.5 -40.5t-4.5 -44.5q0 -16 8 -26.5t20 -10.5q17 0 28 13t18 32
t11 38.5t7 31.5q10 46 18.5 89.5t18 92.5t21.5 113q8 44 16.5 89.5t16.5 92.5l152 10l-35 -193q-7 -37 -15.5 -83t-18.5 -93t-18.5 -89t-15.5 -72q-20 -82 -62 -128.5t-92.5 -65.5t-96.5 -19zM329 754q0 27 10.5 44.5t23.5 30.5q12 12 22.5 21t10.5 16q0 2 -3 5.5t-8 3.5
q-10 0 -24 -10t-29 -22l-16 59q46 36 89 36q10 0 23 -2t20 -7q9 -6 17 -17.5t11 -37.5q0 -22 -10 -37t-25 -26q-16 -11 -27.5 -22.5t-17.5 -30.5l-19 -2z" />
    <glyph glyph-name="Uhorn" unicode="&#x1af;" horiz-adv-x="419" 
d="M165 -18q-30 0 -61 13t-52 40t-21 69v8q0 5 1 8q3 26 8.5 68t13.5 91.5t16.5 98.5t15.5 89q15 80 24 129t14.5 75.5t8.5 39.5l165 16q-13 -61 -24.5 -115.5t-21.5 -103.5l-46 -221q-6 -25 -9 -42q-4 -16 -8.5 -40.5t-4.5 -44.5q0 -16 8 -26.5t20 -10.5q17 0 28 13t18 32
t11 38.5t7 31.5q10 46 18.5 89.5t18 92.5t21.5 113q8 44 16.5 89.5t16.5 92.5l152 10l-35 -193q-7 -37 -15.5 -83t-18.5 -93t-18.5 -89t-15.5 -72q-20 -82 -62 -128.5t-92.5 -65.5t-96.5 -19zM491 719q29 0 45.5 18.5t24 45.5t9 54.5t0.5 45.5q7 -5 13 -10l12 -10
q5 -5 11 -10t11 -10l22 -20q3 -42 -12 -80t-45.5 -64t-77.5 -32z" />
    <glyph glyph-name="uni1EE8" unicode="&#x1ee8;" horiz-adv-x="419" 
d="M165 -18q-30 0 -61 13t-52 40t-21 69v8q0 5 1 8q3 26 8.5 68t13.5 91.5t16.5 98.5t15.5 89q15 80 24 129t14.5 75.5t8.5 39.5l165 16q-13 -61 -24.5 -115.5t-21.5 -103.5l-46 -221q-6 -25 -9 -42q-4 -16 -8.5 -40.5t-4.5 -44.5q0 -16 8 -26.5t20 -10.5q17 0 28 13t18 32
t11 38.5t7 31.5q10 46 18.5 89.5t18 92.5t21.5 113q8 44 16.5 89.5t16.5 92.5l152 10l-35 -193q-7 -37 -15.5 -83t-18.5 -93t-18.5 -89t-15.5 -72q-20 -82 -62 -128.5t-92.5 -65.5t-96.5 -19zM491 719q29 0 45.5 18.5t24 45.5t9 54.5t0.5 45.5q7 -5 13 -10l12 -10
q5 -5 11 -10t11 -10l22 -20q3 -42 -12 -80t-45.5 -64t-77.5 -32zM279 759q-1 5 -1 10.5v9.5v18v16.5t1 16.5v34q34 35 66 65.5t62 57.5t58 55t54 56q5 -68 6 -125q0 -29 2 -58.5t6 -60.5q-29 -12 -61 -24t-66 -24q-34 -13 -66 -24.5t-61 -22.5z" />
    <glyph glyph-name="uni1EF0" unicode="&#x1ef0;" horiz-adv-x="419" 
d="M165 -18q-30 0 -61 13t-52 40t-21 69v8q0 5 1 8q3 26 8.5 68t13.5 91.5t16.5 98.5t15.5 89q15 80 24 129t14.5 75.5t8.5 39.5l165 16q-13 -61 -24.5 -115.5t-21.5 -103.5l-46 -221q-6 -25 -9 -42q-4 -16 -8.5 -40.5t-4.5 -44.5q0 -16 8 -26.5t20 -10.5q17 0 28 13t18 32
t11 38.5t7 31.5q10 46 18.5 89.5t18 92.5t21.5 113q8 44 16.5 89.5t16.5 92.5l152 10l-35 -193q-7 -37 -15.5 -83t-18.5 -93t-18.5 -89t-15.5 -72q-20 -82 -62 -128.5t-92.5 -65.5t-96.5 -19zM491 719q29 0 45.5 18.5t24 45.5t9 54.5t0.5 45.5q7 -5 13 -10l12 -10
q5 -5 11 -10t11 -10l22 -20q3 -42 -12 -80t-45.5 -64t-77.5 -32zM176 -205q-40 0 -60 26t-20 60q0 32 22 60.5t68 28.5q49 0 72.5 -25t23.5 -57q0 -35 -27.5 -64t-78.5 -29z" />
    <glyph glyph-name="uni1EEA" unicode="&#x1eea;" horiz-adv-x="419" 
d="M165 -18q-30 0 -61 13t-52 40t-21 69v8q0 5 1 8q3 26 8.5 68t13.5 91.5t16.5 98.5t15.5 89q15 80 24 129t14.5 75.5t8.5 39.5l165 16q-13 -61 -24.5 -115.5t-21.5 -103.5l-46 -221q-6 -25 -9 -42q-4 -16 -8.5 -40.5t-4.5 -44.5q0 -16 8 -26.5t20 -10.5q17 0 28 13t18 32
t11 38.5t7 31.5q10 46 18.5 89.5t18 92.5t21.5 113q8 44 16.5 89.5t16.5 92.5l152 10l-35 -193q-7 -37 -15.5 -83t-18.5 -93t-18.5 -89t-15.5 -72q-20 -82 -62 -128.5t-92.5 -65.5t-96.5 -19zM491 719q29 0 45.5 18.5t24 45.5t9 54.5t0.5 45.5q7 -5 13 -10l12 -10
q5 -5 11 -10t11 -10l22 -20q3 -42 -12 -80t-45.5 -64t-77.5 -32zM396 761l-50 12t-48 12q-41 9 -84 20.5t-72 20.5q6 29 14 70.5t15 80.5l18 94q20 -21 39.5 -41.5t38.5 -40.5q33 -35 70.5 -75t65.5 -72z" />
    <glyph glyph-name="uni1EEC" unicode="&#x1eec;" horiz-adv-x="419" 
d="M165 -18q-30 0 -61 13t-52 40t-21 69v8q0 5 1 8q3 26 8.5 68t13.5 91.5t16.5 98.5t15.5 89q15 80 24 129t14.5 75.5t8.5 39.5l165 16q-13 -61 -24.5 -115.5t-21.5 -103.5l-46 -221q-6 -25 -9 -42q-4 -16 -8.5 -40.5t-4.5 -44.5q0 -16 8 -26.5t20 -10.5q17 0 28 13t18 32
t11 38.5t7 31.5q10 46 18.5 89.5t18 92.5t21.5 113q8 44 16.5 89.5t16.5 92.5l152 10l-35 -193q-7 -37 -15.5 -83t-18.5 -93t-18.5 -89t-15.5 -72q-20 -82 -62 -128.5t-92.5 -65.5t-96.5 -19zM491 719q29 0 45.5 18.5t24 45.5t9 54.5t0.5 45.5q7 -5 13 -10l12 -10
q5 -5 11 -10t11 -10l22 -20q3 -42 -12 -80t-45.5 -64t-77.5 -32zM329 754q0 27 10.5 44.5t23.5 30.5q12 12 22.5 21t10.5 16q0 2 -3 5.5t-8 3.5q-10 0 -24 -10t-29 -22l-16 59q46 36 89 36q10 0 23 -2t20 -7q9 -6 17 -17.5t11 -37.5q0 -22 -10 -37t-25 -26
q-16 -11 -27.5 -22.5t-17.5 -30.5l-19 -2z" />
    <glyph glyph-name="uni1EEE" unicode="&#x1eee;" horiz-adv-x="419" 
d="M165 -18q-30 0 -61 13t-52 40t-21 69v8q0 5 1 8q3 26 8.5 68t13.5 91.5t16.5 98.5t15.5 89q15 80 24 129t14.5 75.5t8.5 39.5l165 16q-13 -61 -24.5 -115.5t-21.5 -103.5l-46 -221q-6 -25 -9 -42q-4 -16 -8.5 -40.5t-4.5 -44.5q0 -16 8 -26.5t20 -10.5q17 0 28 13t18 32
t11 38.5t7 31.5q10 46 18.5 89.5t18 92.5t21.5 113q8 44 16.5 89.5t16.5 92.5l152 10l-35 -193q-7 -37 -15.5 -83t-18.5 -93t-18.5 -89t-15.5 -72q-20 -82 -62 -128.5t-92.5 -65.5t-96.5 -19zM491 719q29 0 45.5 18.5t24 45.5t9 54.5t0.5 45.5q7 -5 13 -10l12 -10
q5 -5 11 -10t11 -10l22 -20q3 -42 -12 -80t-45.5 -64t-77.5 -32zM195 754q-13 9 -31 23.5t-23 20.5l12.5 25.5t37.5 62.5q23 35 54.5 62t68.5 27q23 0 41.5 -13t32.5 -30t23.5 -30t13.5 -13q20 0 38 17.5t35 39t30 33.5q6 -4 11.5 -8.5t10.5 -8.5t9.5 -7.5t8.5 -6.5t7.5 -6
t6.5 -7q-21 -49 -48 -87q-20 -31 -54 -58.5t-72 -27.5q-24 0 -37 10.5t-22 23.5t-20 23.5t-32 10.5q-19 0 -37.5 -14t-35 -32t-29.5 -30z" />
    <glyph glyph-name="Uhungarumlaut" unicode="&#x170;" horiz-adv-x="419" 
d="M165 -18q-30 0 -61 13t-52 40t-21 69v8q0 5 1 8q3 26 8.5 68t13.5 91.5t16.5 98.5t15.5 89q15 80 24 129t14.5 75.5t8.5 39.5l165 16q-13 -61 -24.5 -115.5t-21.5 -103.5l-46 -221q-6 -25 -9 -42q-4 -16 -8.5 -40.5t-4.5 -44.5q0 -16 8 -26.5t20 -10.5q17 0 28 13t18 32
t11 38.5t7 31.5q10 46 18.5 89.5t18 92.5t21.5 113q8 44 16.5 89.5t16.5 92.5l152 10l-35 -193q-7 -37 -15.5 -83t-18.5 -93t-18.5 -89t-15.5 -72q-20 -82 -62 -128.5t-92.5 -65.5t-96.5 -19zM401 752q-7 18 -18.5 33t-17.5 27t0 21q22 32 43 64.5t42 64.5q20 32 42 64.5
t44 63.5q13 -31 25.5 -61t24.5 -61q11 -31 23.5 -61t25.5 -60l-117 -48q-29 -13 -58.5 -24.5t-58.5 -22.5zM115 752q-7 18 -12 28.5t-10 22t-15 30.5q22 32 43 65t42 65t43 64t44 63q13 -31 25.5 -61t24.5 -61q11 -31 23.5 -61t25.5 -60l-117 -48q-29 -13 -58.5 -24.5
t-58.5 -22.5z" />
    <glyph glyph-name="uni0216" unicode="&#x216;" horiz-adv-x="419" 
d="M165 -18q-30 0 -61 13t-52 40t-21 69v8q0 5 1 8q3 26 8.5 68t13.5 91.5t16.5 98.5t15.5 89q15 80 24 129t14.5 75.5t8.5 39.5l165 16q-13 -61 -24.5 -115.5t-21.5 -103.5l-46 -221q-6 -25 -9 -42q-4 -16 -8.5 -40.5t-4.5 -44.5q0 -16 8 -26.5t20 -10.5q17 0 28 13t18 32
t11 38.5t7 31.5q10 46 18.5 89.5t18 92.5t21.5 113q8 44 16.5 89.5t16.5 92.5l152 10l-35 -193q-7 -37 -15.5 -83t-18.5 -93t-18.5 -89t-15.5 -72q-20 -82 -62 -128.5t-92.5 -65.5t-96.5 -19zM383 986q37 0 65.5 -26.5t44 -66.5t12.5 -83l-22 -20q-5 -4 -11 -9t-11 -10
q-6 -5 -12 -10.5t-13 -10.5q1 25 -6.5 49.5t-21.5 41.5t-33 17q-31 0 -48 -14q-16 -15 -29.5 -39t-33.5 -65q-13 11 -23 19.5t-18 16.5l-16 16q10 46 34 90.5t60 74t82 29.5z" />
    <glyph glyph-name="Umacron" unicode="&#x16a;" horiz-adv-x="419" 
d="M165 -18q-30 0 -61 13t-52 40t-21 69v8q0 5 1 8q3 26 8.5 68t13.5 91.5t16.5 98.5t15.5 89q15 80 24 129t14.5 75.5t8.5 39.5l165 16q-13 -61 -24.5 -115.5t-21.5 -103.5l-46 -221q-6 -25 -9 -42q-4 -16 -8.5 -40.5t-4.5 -44.5q0 -16 8 -26.5t20 -10.5q17 0 28 13t18 32
t11 38.5t7 31.5q10 46 18.5 89.5t18 92.5t21.5 113q8 44 16.5 89.5t16.5 92.5l152 10l-35 -193q-7 -37 -15.5 -83t-18.5 -93t-18.5 -89t-15.5 -72q-20 -82 -62 -128.5t-92.5 -65.5t-96.5 -19zM168 774q-5 17 -6 45t-1 54v40v9.5t1 8.5l374 32l16 -162l-151 -9
q-50 -3 -88.5 -6t-73 -5.5t-71.5 -6.5z" />
    <glyph glyph-name="Uogonek" unicode="&#x172;" horiz-adv-x="419" 
d="M165 -18q-30 0 -61 13t-52 40t-21 69v8q0 5 1 8q3 26 8.5 68t13.5 91.5t16.5 98.5t15.5 89q15 80 24 129t14.5 75.5t8.5 39.5l165 16q-13 -61 -24.5 -115.5t-21.5 -103.5l-46 -221q-6 -25 -9 -42q-4 -16 -8.5 -40.5t-4.5 -44.5q0 -16 8 -26.5t20 -10.5q17 0 28 13t18 32
t11 38.5t7 31.5q10 46 18.5 89.5t18 92.5t21.5 113q8 44 16.5 89.5t16.5 92.5l152 10l-35 -193q-7 -37 -15.5 -83t-18.5 -93t-18.5 -89t-15.5 -72q-20 -82 -62 -128.5t-92.5 -65.5t-96.5 -19zM340 -134q-58 0 -96.5 28t-38.5 69q0 39 40 78q2 0 17 3t43 6q-2 -9 -3 -16.5
t-1 -13.5q0 -25 14.5 -41t35.5 -16q28 0 53 28l20 -88q-16 -19 -38.5 -28t-45.5 -9z" />
    <glyph glyph-name="Uring" unicode="&#x16e;" horiz-adv-x="419" 
d="M165 -18q-30 0 -61 13t-52 40t-21 69v8q0 5 1 8q3 26 8.5 68t13.5 91.5t16.5 98.5t15.5 89q15 80 24 129t14.5 75.5t8.5 39.5l165 16q-13 -61 -24.5 -115.5t-21.5 -103.5l-46 -221q-6 -25 -9 -42q-4 -16 -8.5 -40.5t-4.5 -44.5q0 -16 8 -26.5t20 -10.5q17 0 28 13t18 32
t11 38.5t7 31.5q10 46 18.5 89.5t18 92.5t21.5 113q8 44 16.5 89.5t16.5 92.5l152 10l-35 -193q-7 -37 -15.5 -83t-18.5 -93t-18.5 -89t-15.5 -72q-20 -82 -62 -128.5t-92.5 -65.5t-96.5 -19zM355 767q-48 0 -75 33t-27 78q0 46 29.5 80.5t86.5 34.5q53 0 82.5 -30.5
t29.5 -74.5q0 -32 -16 -60t-44.5 -44.5t-65.5 -16.5zM367 830q26 0 39 16.5t13 33.5t-11.5 30.5t-35.5 13.5q-25 0 -36.5 -15t-11.5 -33q0 -17 11.5 -31.5t31.5 -14.5z" />
    <glyph glyph-name="Utilde" unicode="&#x168;" horiz-adv-x="419" 
d="M165 -18q-30 0 -61 13t-52 40t-21 69v8q0 5 1 8q3 26 8.5 68t13.5 91.5t16.5 98.5t15.5 89q15 80 24 129t14.5 75.5t8.5 39.5l165 16q-13 -61 -24.5 -115.5t-21.5 -103.5l-46 -221q-6 -25 -9 -42q-4 -16 -8.5 -40.5t-4.5 -44.5q0 -16 8 -26.5t20 -10.5q17 0 28 13t18 32
t11 38.5t7 31.5q10 46 18.5 89.5t18 92.5t21.5 113q8 44 16.5 89.5t16.5 92.5l152 10l-35 -193q-7 -37 -15.5 -83t-18.5 -93t-18.5 -89t-15.5 -72q-20 -82 -62 -128.5t-92.5 -65.5t-96.5 -19zM233 776q-13 9 -31 23.5t-23 20.5l12.5 25.5t37.5 62.5q23 35 54.5 62t68.5 27
q23 0 41.5 -13t32.5 -30t23.5 -30t13.5 -13q20 0 38 17.5t35 39t30 33.5q6 -4 11.5 -8.5t10.5 -8.5t9.5 -7.5t8.5 -6.5t7.5 -6t6.5 -7q-21 -49 -48 -87q-20 -31 -54 -58.5t-72 -27.5q-24 0 -37 10.5t-22 23.5t-20 23.5t-32 10.5q-19 0 -37.5 -14t-35 -32t-29.5 -30z" />
    <glyph glyph-name="V" unicode="V" horiz-adv-x="379" 
d="M59 -9q7 70 13 139t11 136q11 122 17.5 240t8.5 221q78 0 117 3.5l39 3.5q-5 -58 -10 -105.5t-9 -84.5l-12 -121q-5 -55 -8.5 -93t-6.5 -70t-8 -70h18l112 532l55 3q13 1 26 1.5t27 1.5t26.5 2t23.5 2q-19 -59 -38.5 -132t-39 -151t-39.5 -154q-16 -64 -32 -130.5
t-32 -134.5z" />
    <glyph glyph-name="W" unicode="W" horiz-adv-x="601" 
d="M41 -4l76 710q23 1 45.5 3.5t43.5 6.5q20 4 41 6.5t41 3.5l-3 -20q-1 -10 -3.5 -22.5t-4.5 -28.5q-5 -35 -12 -80t-16 -100q-6 -34 -13.5 -82t-17.5 -109h15q13 46 24 84t19 67t15.5 52.5t12.5 42.5q21 74 34 121t17 61h9q26 0 54.5 4t51.5 9q-1 -4 -4 -33t-7 -71t-8 -87
q-7 -85 -12.5 -148t-9.5 -102h18l95 430l67 9q14 2 29 4t31 4q29 4 55 9q-30 -84 -60 -198t-60 -231q-16 -64 -31.5 -129.5t-30.5 -133.5l-226 -38l44 386h-12l-99 -363z" />
    <glyph glyph-name="Wacute" unicode="&#x1e82;" horiz-adv-x="601" 
d="M41 -4l76 710q23 1 45.5 3.5t43.5 6.5q20 4 41 6.5t41 3.5l-3 -20q-1 -10 -3.5 -22.5t-4.5 -28.5q-5 -35 -12 -80t-16 -100q-6 -34 -13.5 -82t-17.5 -109h15q13 46 24 84t19 67t15.5 52.5t12.5 42.5q21 74 34 121t17 61h9q26 0 54.5 4t51.5 9q-1 -4 -4 -33t-7 -71t-8 -87
q-7 -85 -12.5 -148t-9.5 -102h18l95 430l67 9q14 2 29 4t31 4q29 4 55 9q-30 -84 -60 -198t-60 -231q-16 -64 -31.5 -129.5t-30.5 -133.5l-226 -38l44 386h-12l-99 -363zM392 754q-1 5 -1 10.5v9.5v18v16.5t1 16.5v34q34 35 66 65.5t62 57.5t58 55t54 56q5 -68 6 -125
q0 -29 2 -58.5t6 -60.5q-29 -12 -61 -24t-66 -24q-34 -13 -66 -24.5t-61 -22.5z" />
    <glyph glyph-name="Wcircumflex" unicode="&#x174;" horiz-adv-x="601" 
d="M41 -4l76 710q23 1 45.5 3.5t43.5 6.5q20 4 41 6.5t41 3.5l-3 -20q-1 -10 -3.5 -22.5t-4.5 -28.5q-5 -35 -12 -80t-16 -100q-6 -34 -13.5 -82t-17.5 -109h15q13 46 24 84t19 67t15.5 52.5t12.5 42.5q21 74 34 121t17 61h9q26 0 54.5 4t51.5 9q-1 -4 -4 -33t-7 -71t-8 -87
q-7 -85 -12.5 -148t-9.5 -102h18l95 430l67 9q14 2 29 4t31 4q29 4 55 9q-30 -84 -60 -198t-60 -231q-16 -64 -31.5 -129.5t-30.5 -133.5l-226 -38l44 386h-12l-99 -363zM401 754q-13 11 -23 20.5t-16 17.5q-4 5 -8 9t-7 8q14 20 28.5 40.5t29.5 39.5q25 33 54.5 69t55.5 62
q20 -3 33.5 -4.5t21.5 -0.5q15 1 17 -1q4 -13 8.5 -29t9.5 -33l18 -66q5 -19 11 -37t11 -37l-24 -20q-5 -4 -10.5 -8.5t-12.5 -9.5l-25 -19l-61 118q-20 -18 -42 -41.5t-40 -44.5t-29 -33z" />
    <glyph glyph-name="Wdieresis" unicode="&#x1e84;" horiz-adv-x="601" 
d="M41 -4l76 710q23 1 45.5 3.5t43.5 6.5q20 4 41 6.5t41 3.5l-3 -20q-1 -10 -3.5 -22.5t-4.5 -28.5q-5 -35 -12 -80t-16 -100q-6 -34 -13.5 -82t-17.5 -109h15q13 46 24 84t19 67t15.5 52.5t12.5 42.5q21 74 34 121t17 61h9q26 0 54.5 4t51.5 9q-1 -4 -4 -33t-7 -71t-8 -87
q-7 -85 -12.5 -148t-9.5 -102h18l95 430l67 9q14 2 29 4t31 4q29 4 55 9q-30 -84 -60 -198t-60 -231q-16 -64 -31.5 -129.5t-30.5 -133.5l-226 -38l44 386h-12l-99 -363zM602 818q-40 0 -60 26.5t-20 59.5q0 35 23.5 62t67.5 27q48 0 72 -25t24 -56q0 -34 -27.5 -64
t-79.5 -30zM370 818q-40 0 -60 26.5t-20 59.5q0 34 22.5 61.5t67.5 27.5q49 0 72.5 -25t23.5 -56q0 -39 -29.5 -66.5t-76.5 -27.5z" />
    <glyph glyph-name="Wgrave" unicode="&#x1e80;" horiz-adv-x="601" 
d="M41 -4l76 710q23 1 45.5 3.5t43.5 6.5q20 4 41 6.5t41 3.5l-3 -20q-1 -10 -3.5 -22.5t-4.5 -28.5q-5 -35 -12 -80t-16 -100q-6 -34 -13.5 -82t-17.5 -109h15q13 46 24 84t19 67t15.5 52.5t12.5 42.5q21 74 34 121t17 61h9q26 0 54.5 4t51.5 9q-1 -4 -4 -33t-7 -71t-8 -87
q-7 -85 -12.5 -148t-9.5 -102h18l95 430l67 9q14 2 29 4t31 4q29 4 55 9q-30 -84 -60 -198t-60 -231q-16 -64 -31.5 -129.5t-30.5 -133.5l-226 -38l44 386h-12l-99 -363zM509 756l-50 12t-48 12q-41 9 -84 20.5t-72 20.5q6 29 14 70.5t15 80.5l18 94q20 -21 39.5 -41.5
t38.5 -40.5q33 -35 70.5 -75t65.5 -72z" />
    <glyph glyph-name="X" unicode="X" horiz-adv-x="411" 
d="M234 -10q-1 20 -2.5 39.5t-2.5 38.5q-1 17 -2 33.5t-2 32.5q-1 17 -2 30.5t-2 24.5l-23 -55q-7 -16 -14.5 -32.5t-14.5 -32.5q-8 -19 -17 -37.5t-18 -37.5l-170 15q25 44 50 88.5t50 87.5q25 44 48 89.5t44 92.5q-6 45 -11.5 80t-12.5 69q-7 32 -15 69.5t-16 77.5l160 66
q5 -48 12 -104q3 -28 6 -54.5t5 -50.5l46 100q11 25 22.5 49.5t23.5 49.5l145 -39q-35 -59 -61.5 -107t-50.5 -97t-54 -112q11 -76 32 -161t39 -157q-2 -1 -24 -6.5t-59 -16.5q-36 -10 -65.5 -18.5t-43.5 -14.5z" />
    <glyph glyph-name="Y" unicode="Y" horiz-adv-x="384" 
d="M77 15l46 201q0 71 -3.5 145.5t-8.5 148.5q-4 74 -7.5 119l-3.5 45l163 62v-122q0 -58 -0.5 -104.5t-0.5 -81.5q13 34 31.5 84t34.5 97q10 28 19.5 56.5t19.5 59.5l155 -35q-43 -85 -84 -171q-24 -53 -52.5 -111.5t-53 -109t-38.5 -80.5q-5 -26 -12.5 -57t-14.5 -59
q-4 -16 -9 -32.5t-10 -33.5z" />
    <glyph glyph-name="Yacute" unicode="&#xdd;" horiz-adv-x="384" 
d="M77 15l46 201q0 71 -3.5 145.5t-8.5 148.5q-4 74 -7.5 119l-3.5 45l163 62v-122q0 -58 -0.5 -104.5t-0.5 -81.5q13 34 31.5 84t34.5 97q10 28 19.5 56.5t19.5 59.5l155 -35q-43 -85 -84 -171q-24 -53 -52.5 -111.5t-53 -109t-38.5 -80.5q-5 -26 -12.5 -57t-14.5 -59
q-4 -16 -9 -32.5t-10 -33.5zM272 750q-1 5 -1 10.5v9.5v18v16.5t1 16.5v34q34 35 66 65.5t62 57.5t58 55t54 56q5 -68 6 -125q0 -29 2 -58.5t6 -60.5q-29 -12 -61 -24t-66 -24q-34 -13 -66 -24.5t-61 -22.5z" />
    <glyph glyph-name="Ycircumflex" unicode="&#x176;" horiz-adv-x="384" 
d="M77 15l46 201q0 71 -3.5 145.5t-8.5 148.5q-4 74 -7.5 119l-3.5 45l163 62v-122q0 -58 -0.5 -104.5t-0.5 -81.5q13 34 31.5 84t34.5 97q10 28 19.5 56.5t19.5 59.5l155 -35q-43 -85 -84 -171q-24 -53 -52.5 -111.5t-53 -109t-38.5 -80.5q-5 -26 -12.5 -57t-14.5 -59
q-4 -16 -9 -32.5t-10 -33.5zM281 750q-13 11 -23 20.5t-16 17.5q-4 5 -8 9t-7 8q14 20 28.5 40.5t29.5 39.5q25 33 54.5 69t55.5 62q20 -3 33.5 -4.5t21.5 -0.5q15 1 17 -1q4 -13 8.5 -29t9.5 -33l18 -66q5 -19 11 -37t11 -37l-24 -20q-5 -4 -10.5 -8.5t-12.5 -9.5l-25 -19
l-61 118q-20 -18 -42 -41.5t-40 -44.5t-29 -33z" />
    <glyph glyph-name="Ydieresis" unicode="&#x178;" horiz-adv-x="384" 
d="M77 15l46 201q0 71 -3.5 145.5t-8.5 148.5q-4 74 -7.5 119l-3.5 45l163 62v-122q0 -58 -0.5 -104.5t-0.5 -81.5q13 34 31.5 84t34.5 97q10 28 19.5 56.5t19.5 59.5l155 -35q-43 -85 -84 -171q-24 -53 -52.5 -111.5t-53 -109t-38.5 -80.5q-5 -26 -12.5 -57t-14.5 -59
q-4 -16 -9 -32.5t-10 -33.5zM482 814q-40 0 -60 26.5t-20 59.5q0 35 23.5 62t67.5 27q48 0 72 -25t24 -56q0 -34 -27.5 -64t-79.5 -30zM250 814q-40 0 -60 26.5t-20 59.5q0 34 22.5 61.5t67.5 27.5q49 0 72.5 -25t23.5 -56q0 -39 -29.5 -66.5t-76.5 -27.5z" />
    <glyph glyph-name="uni1EF4" unicode="&#x1ef4;" horiz-adv-x="384" 
d="M77 15l46 201q0 71 -3.5 145.5t-8.5 148.5q-4 74 -7.5 119l-3.5 45l163 62v-122q0 -58 -0.5 -104.5t-0.5 -81.5q13 34 31.5 84t34.5 97q10 28 19.5 56.5t19.5 59.5l155 -35q-43 -85 -84 -171q-24 -53 -52.5 -111.5t-53 -109t-38.5 -80.5q-5 -26 -12.5 -57t-14.5 -59
q-4 -16 -9 -32.5t-10 -33.5zM178 -205q-40 0 -60 26t-20 60q0 32 22 60.5t68 28.5q49 0 72.5 -25t23.5 -57q0 -35 -27.5 -64t-78.5 -29z" />
    <glyph glyph-name="Ygrave" unicode="&#x1ef2;" horiz-adv-x="384" 
d="M77 15l46 201q0 71 -3.5 145.5t-8.5 148.5q-4 74 -7.5 119l-3.5 45l163 62v-122q0 -58 -0.5 -104.5t-0.5 -81.5q13 34 31.5 84t34.5 97q10 28 19.5 56.5t19.5 59.5l155 -35q-43 -85 -84 -171q-24 -53 -52.5 -111.5t-53 -109t-38.5 -80.5q-5 -26 -12.5 -57t-14.5 -59
q-4 -16 -9 -32.5t-10 -33.5zM389 752l-50 12t-48 12q-41 9 -84 20.5t-72 20.5q6 29 14 70.5t15 80.5l18 94q20 -21 39.5 -41.5t38.5 -40.5q33 -35 70.5 -75t65.5 -72z" />
    <glyph glyph-name="uni1EF6" unicode="&#x1ef6;" horiz-adv-x="384" 
d="M77 15l46 201q0 71 -3.5 145.5t-8.5 148.5q-4 74 -7.5 119l-3.5 45l163 62v-122q0 -58 -0.5 -104.5t-0.5 -81.5q13 34 31.5 84t34.5 97q10 28 19.5 56.5t19.5 59.5l155 -35q-43 -85 -84 -171q-24 -53 -52.5 -111.5t-53 -109t-38.5 -80.5q-5 -26 -12.5 -57t-14.5 -59
q-4 -16 -9 -32.5t-10 -33.5zM322 745q0 27 10.5 44.5t23.5 30.5q12 12 22.5 21t10.5 16q0 2 -3 5.5t-8 3.5q-10 0 -24 -10t-29 -22l-16 59q46 36 89 36q10 0 23 -2t20 -7q9 -6 17 -17.5t11 -37.5q0 -22 -10 -37t-25 -26q-16 -11 -27.5 -22.5t-17.5 -30.5l-19 -2z" />
    <glyph glyph-name="uni0232" unicode="&#x232;" horiz-adv-x="384" 
d="M77 15l46 201q0 71 -3.5 145.5t-8.5 148.5q-4 74 -7.5 119l-3.5 45l163 62v-122q0 -58 -0.5 -104.5t-0.5 -81.5q13 34 31.5 84t34.5 97q10 28 19.5 56.5t19.5 59.5l155 -35q-43 -85 -84 -171q-24 -53 -52.5 -111.5t-53 -109t-38.5 -80.5q-5 -26 -12.5 -57t-14.5 -59
q-4 -16 -9 -32.5t-10 -33.5zM161 765q-5 17 -6 45t-1 54v40v9.5t1 8.5l374 32l16 -162l-151 -9q-50 -3 -88.5 -6t-73 -5.5t-71.5 -6.5z" />
    <glyph glyph-name="uni1EF8" unicode="&#x1ef8;" horiz-adv-x="384" 
d="M77 15l46 201q0 71 -3.5 145.5t-8.5 148.5q-4 74 -7.5 119l-3.5 45l163 62v-122q0 -58 -0.5 -104.5t-0.5 -81.5q13 34 31.5 84t34.5 97q10 28 19.5 56.5t19.5 59.5l155 -35q-43 -85 -84 -171q-24 -53 -52.5 -111.5t-53 -109t-38.5 -80.5q-5 -26 -12.5 -57t-14.5 -59
q-4 -16 -9 -32.5t-10 -33.5zM226 767q-13 9 -31 23.5t-23 20.5l12.5 25.5t37.5 62.5q23 35 54.5 62t68.5 27q23 0 41.5 -13t32.5 -30t23.5 -30t13.5 -13q20 0 38 17.5t35 39t30 33.5q6 -4 11.5 -8.5t10.5 -8.5t9.5 -7.5t8.5 -6.5t7.5 -6t6.5 -7q-21 -49 -48 -87
q-20 -31 -54 -58.5t-72 -27.5q-24 0 -37 10.5t-22 23.5t-20 23.5t-32 10.5q-19 0 -37.5 -14t-35 -32t-29.5 -30z" />
    <glyph glyph-name="Z" unicode="Z" horiz-adv-x="431" 
d="M8 9v146l285 387q-29 0 -52.5 -2.5t-54 -7t-82.5 -11.5l19 157l409 29l-26 -138l-273 -388q14 0 46 1.5t72.5 4t79.5 5.5v-152q-12 0 -60 -2t-132 -7q-76 -5 -137.5 -10.5t-93.5 -11.5z" />
    <glyph glyph-name="Zacute" unicode="&#x179;" horiz-adv-x="431" 
d="M8 9v146l285 387q-29 0 -52.5 -2.5t-54 -7t-82.5 -11.5l19 157l409 29l-26 -138l-273 -388q14 0 46 1.5t72.5 4t79.5 5.5v-152q-12 0 -60 -2t-132 -7q-76 -5 -137.5 -10.5t-93.5 -11.5zM305 750q-1 5 -1 10.5v9.5v18v16.5t1 16.5v34q34 35 66 65.5t62 57.5t58 55t54 56
q5 -68 6 -125q0 -29 2 -58.5t6 -60.5q-29 -12 -61 -24t-66 -24q-34 -13 -66 -24.5t-61 -22.5z" />
    <glyph glyph-name="Zcaron" unicode="&#x17d;" horiz-adv-x="431" 
d="M8 9v146l285 387q-29 0 -52.5 -2.5t-54 -7t-82.5 -11.5l19 157l409 29l-26 -138l-273 -388q14 0 46 1.5t72.5 4t79.5 5.5v-152q-12 0 -60 -2t-132 -7q-76 -5 -137.5 -10.5t-93.5 -11.5zM374 756q-13 1 -24 1.5t-18 0.5h-16q-4 -1 -10 -1q-4 0 -4 1q-4 13 -9.5 28.5
t-10.5 32.5q-6 17 -12 33t-11 32l-12 36t-13 37l22 21q5 5 11 10l12 10l24 20l67 -115q17 19 39.5 46t41.5 50t24 29q13 -11 23 -20t18 -17l16 -15q-13 -22 -26.5 -42.5t-27.5 -40.5q-23 -34 -51 -72t-53 -65z" />
    <glyph glyph-name="Zdotaccent" unicode="&#x17b;" horiz-adv-x="431" 
d="M8 9v146l285 387q-29 0 -52.5 -2.5t-54 -7t-82.5 -11.5l19 157l409 29l-26 -138l-273 -388q14 0 46 1.5t72.5 4t79.5 5.5v-152q-12 0 -60 -2t-132 -7q-76 -5 -137.5 -10.5t-93.5 -11.5zM406 778q-40 0 -60 26t-20 60q0 32 22 60.5t68 28.5q49 0 72.5 -25t23.5 -57
q0 -35 -27.5 -64t-78.5 -29z" />
    <glyph glyph-name="a" unicode="a" horiz-adv-x="433" 
d="M259 2q2 17 4 33l4 32l6 56q1 14 2 26t2 22h-87l-40 -144q-22 -3 -52 -6.5t-56 -6.5q-16 -2 -31.5 -4t-31.5 -4l79 262q14 47 32 107t36.5 123t35 118.5t26.5 93.5q68 5 138.5 12t137.5 19q-5 -56 -9.5 -126.5t-8 -145.5t-7.5 -148q-2 -69 -5 -142.5t-6 -150.5l-30 -4
l-30 -4q-25 -4 -55 -9zM214 271q6 0 22.5 1t31.5 2t18 1q0 13 4 53t8 84q2 26 4.5 53.5t5.5 56.5l6 87l-15 -1l-23 -86z" />
    <glyph glyph-name="aacute" unicode="&#xe1;" horiz-adv-x="433" 
d="M259 2q2 17 4 33l4 32l6 56q1 14 2 26t2 22h-87l-40 -144q-22 -3 -52 -6.5t-56 -6.5q-16 -2 -31.5 -4t-31.5 -4l79 262q14 47 32 107t36.5 123t35 118.5t26.5 93.5q68 5 138.5 12t137.5 19q-5 -56 -9.5 -126.5t-8 -145.5t-7.5 -148q-2 -69 -5 -142.5t-6 -150.5l-30 -4
l-30 -4q-25 -4 -55 -9zM214 271q6 0 22.5 1t31.5 2t18 1q0 13 4 53t8 84q2 26 4.5 53.5t5.5 56.5l6 87l-15 -1l-23 -86zM190 765q-1 5 -1 10.5v9.5v18v16.5t1 16.5v34q34 35 66 65.5t62 57.5t58 55t54 56q5 -68 6 -125q0 -29 2 -58.5t6 -60.5q-29 -12 -61 -24t-66 -24
q-34 -13 -66 -24.5t-61 -22.5z" />
    <glyph glyph-name="abreve" unicode="&#x103;" horiz-adv-x="433" 
d="M259 2q2 17 4 33l4 32l6 56q1 14 2 26t2 22h-87l-40 -144q-22 -3 -52 -6.5t-56 -6.5q-16 -2 -31.5 -4t-31.5 -4l79 262q14 47 32 107t36.5 123t35 118.5t26.5 93.5q68 5 138.5 12t137.5 19q-5 -56 -9.5 -126.5t-8 -145.5t-7.5 -148q-2 -69 -5 -142.5t-6 -150.5l-30 -4
l-30 -4q-25 -4 -55 -9zM214 271q6 0 22.5 1t31.5 2t18 1q0 13 4 53t8 84q2 26 4.5 53.5t5.5 56.5l6 87l-15 -1l-23 -86zM311 799q-36 0 -65 26.5t-44 67t-13 82.5l22 20q5 5 11 10l12 10q5 5 11 10t13 10q-1 -24 6.5 -49t21.5 -42t33 -17q33 0 49 15q17 14 29.5 38t32.5 65
q13 -11 23 -19.5t18 -16.5l16 -16q-9 -45 -33.5 -90t-60.5 -74.5t-82 -29.5z" />
    <glyph glyph-name="uni1EAF" unicode="&#x1eaf;" horiz-adv-x="433" 
d="M259 2q2 17 4 33l4 32l6 56q1 14 2 26t2 22h-87l-40 -144q-22 -3 -52 -6.5t-56 -6.5q-16 -2 -31.5 -4t-31.5 -4l79 262q14 47 32 107t36.5 123t35 118.5t26.5 93.5q68 5 138.5 12t137.5 19q-5 -56 -9.5 -126.5t-8 -145.5t-7.5 -148q-2 -69 -5 -142.5t-6 -150.5l-30 -4
l-30 -4q-25 -4 -55 -9zM214 271q6 0 22.5 1t31.5 2t18 1q0 13 4 53t8 84q2 26 4.5 53.5t5.5 56.5l6 87l-15 -1l-23 -86zM311 799q-36 0 -65 26.5t-44 67t-13 82.5l22 20q5 5 11 10l12 10q5 5 11 10t13 10q-1 -24 6.5 -49t21.5 -42t33 -17q33 0 49 15q17 14 29.5 38t32.5 65
q13 -11 23 -19.5t18 -16.5l16 -16q-9 -45 -33.5 -90t-60.5 -74.5t-82 -29.5zM227 1053q-1 5 -1 10.5v9.5v18v16.5t1 16.5v34q34 35 66 65.5t62 57.5t58 55t54 56q5 -68 6 -125q0 -29 2 -58.5t6 -60.5q-29 -12 -61 -24t-66 -24q-34 -13 -66 -24.5t-61 -22.5z" />
    <glyph glyph-name="uni1EB7" unicode="&#x1eb7;" horiz-adv-x="433" 
d="M259 2q2 17 4 33l4 32l6 56q1 14 2 26t2 22h-87l-40 -144q-22 -3 -52 -6.5t-56 -6.5q-16 -2 -31.5 -4t-31.5 -4l79 262q14 47 32 107t36.5 123t35 118.5t26.5 93.5q68 5 138.5 12t137.5 19q-5 -56 -9.5 -126.5t-8 -145.5t-7.5 -148q-2 -69 -5 -142.5t-6 -150.5l-30 -4
l-30 -4q-25 -4 -55 -9zM214 271q6 0 22.5 1t31.5 2t18 1q0 13 4 53t8 84q2 26 4.5 53.5t5.5 56.5l6 87l-15 -1l-23 -86zM174 -192q-40 0 -60 26.5t-20 59.5q0 35 22.5 62t67.5 27q49 0 72.5 -25t23.5 -56q0 -40 -30 -67t-76 -27zM311 799q-36 0 -65 26.5t-44 67t-13 82.5
l22 20q5 5 11 10l12 10q5 5 11 10t13 10q-1 -24 6.5 -49t21.5 -42t33 -17q33 0 49 15q17 14 29.5 38t32.5 65q13 -11 23 -19.5t18 -16.5l16 -16q-9 -45 -33.5 -90t-60.5 -74.5t-82 -29.5z" />
    <glyph glyph-name="uni1EB1" unicode="&#x1eb1;" horiz-adv-x="433" 
d="M259 2q2 17 4 33l4 32l6 56q1 14 2 26t2 22h-87l-40 -144q-22 -3 -52 -6.5t-56 -6.5q-16 -2 -31.5 -4t-31.5 -4l79 262q14 47 32 107t36.5 123t35 118.5t26.5 93.5q68 5 138.5 12t137.5 19q-5 -56 -9.5 -126.5t-8 -145.5t-7.5 -148q-2 -69 -5 -142.5t-6 -150.5l-30 -4
l-30 -4q-25 -4 -55 -9zM214 271q6 0 22.5 1t31.5 2t18 1q0 13 4 53t8 84q2 26 4.5 53.5t5.5 56.5l6 87l-15 -1l-23 -86zM311 799q-36 0 -65 26.5t-44 67t-13 82.5l22 20q5 5 11 10l12 10q5 5 11 10t13 10q-1 -24 6.5 -49t21.5 -42t33 -17q33 0 49 15q17 14 29.5 38t32.5 65
q13 -11 23 -19.5t18 -16.5l16 -16q-9 -45 -33.5 -90t-60.5 -74.5t-82 -29.5zM424 1058l-50 12t-48 12q-41 9 -84 20.5t-72 20.5q6 29 14 70.5t15 80.5l18 94q20 -21 39.5 -41.5t38.5 -40.5q33 -35 70.5 -75t65.5 -72z" />
    <glyph glyph-name="uni1EB3" unicode="&#x1eb3;" horiz-adv-x="433" 
d="M259 2q2 17 4 33l4 32l6 56q1 14 2 26t2 22h-87l-40 -144q-22 -3 -52 -6.5t-56 -6.5q-16 -2 -31.5 -4t-31.5 -4l79 262q14 47 32 107t36.5 123t35 118.5t26.5 93.5q68 5 138.5 12t137.5 19q-5 -56 -9.5 -126.5t-8 -145.5t-7.5 -148q-2 -69 -5 -142.5t-6 -150.5l-30 -4
l-30 -4q-25 -4 -55 -9zM214 271q6 0 22.5 1t31.5 2t18 1q0 13 4 53t8 84q2 26 4.5 53.5t5.5 56.5l6 87l-15 -1l-23 -86zM325 1046q0 27 10.5 44.5t23.5 30.5q12 12 22.5 21t10.5 16q0 2 -3 5.5t-8 3.5q-10 0 -24 -10t-29 -22l-16 59q46 36 89 36q10 0 23 -2t20 -7
q9 -6 17 -17.5t11 -37.5q0 -22 -10 -37t-25 -26q-16 -11 -27.5 -22.5t-17.5 -30.5l-19 -2zM330 799q-36 0 -65 26.5t-44 67t-13 82.5l22 20q5 5 11 10l12 10q5 5 11 10t13 10q-1 -24 6.5 -49t21.5 -42t33 -17q33 0 49 15q17 14 29.5 38t32.5 65q13 -11 23 -19.5t18 -16.5
l16 -16q-9 -45 -33.5 -90t-60.5 -74.5t-82 -29.5z" />
    <glyph glyph-name="uni1EB5" unicode="&#x1eb5;" horiz-adv-x="433" 
d="M259 2q2 17 4 33l4 32l6 56q1 14 2 26t2 22h-87l-40 -144q-22 -3 -52 -6.5t-56 -6.5q-16 -2 -31.5 -4t-31.5 -4l79 262q14 47 32 107t36.5 123t35 118.5t26.5 93.5q68 5 138.5 12t137.5 19q-5 -56 -9.5 -126.5t-8 -145.5t-7.5 -148q-2 -69 -5 -142.5t-6 -150.5l-30 -4
l-30 -4q-25 -4 -55 -9zM214 271q6 0 22.5 1t31.5 2t18 1q0 13 4 53t8 84q2 26 4.5 53.5t5.5 56.5l6 87l-15 -1l-23 -86zM311 799q-36 0 -65 26.5t-44 67t-13 82.5l22 20q5 5 11 10l12 10q5 5 11 10t13 10q-1 -24 6.5 -49t21.5 -42t33 -17q33 0 49 15q17 14 29.5 38t32.5 65
q13 -11 23 -19.5t18 -16.5l16 -16q-9 -45 -33.5 -90t-60.5 -74.5t-82 -29.5zM235 1084q-13 9 -31 23.5t-23 20.5l12.5 25.5t37.5 62.5q23 35 54.5 62t68.5 27q23 0 41.5 -13t32.5 -30t23.5 -30t13.5 -13q20 0 38 17.5t35 39t30 33.5q6 -4 11.5 -8.5t10.5 -8.5t9.5 -7.5
t8.5 -6.5t7.5 -6t6.5 -7q-21 -49 -48 -87q-20 -31 -54 -58.5t-72 -27.5q-24 0 -37 10.5t-22 23.5t-20 23.5t-32 10.5q-19 0 -37.5 -14t-35 -32t-29.5 -30z" />
    <glyph glyph-name="acircumflex" unicode="&#xe2;" horiz-adv-x="433" 
d="M259 2q2 17 4 33l4 32l6 56q1 14 2 26t2 22h-87l-40 -144q-22 -3 -52 -6.5t-56 -6.5q-16 -2 -31.5 -4t-31.5 -4l79 262q14 47 32 107t36.5 123t35 118.5t26.5 93.5q68 5 138.5 12t137.5 19q-5 -56 -9.5 -126.5t-8 -145.5t-7.5 -148q-2 -69 -5 -142.5t-6 -150.5l-30 -4
l-30 -4q-25 -4 -55 -9zM214 271q6 0 22.5 1t31.5 2t18 1q0 13 4 53t8 84q2 26 4.5 53.5t5.5 56.5l6 87l-15 -1l-23 -86zM222 770q-13 11 -23 20.5t-16 17.5q-4 5 -8 9t-7 8q14 20 28.5 40.5t29.5 39.5q25 33 54.5 69t55.5 62q20 -3 33.5 -4.5t21.5 -0.5q15 1 17 -1
q4 -13 8.5 -29t9.5 -33l18 -66q5 -19 11 -37t11 -37l-24 -20q-5 -4 -10.5 -8.5t-12.5 -9.5l-25 -19l-61 118q-20 -18 -42 -41.5t-40 -44.5t-29 -33z" />
    <glyph glyph-name="uni1EA5" unicode="&#x1ea5;" horiz-adv-x="433" 
d="M259 2q2 17 4 33l4 32l6 56q1 14 2 26t2 22h-87l-40 -144q-22 -3 -52 -6.5t-56 -6.5q-16 -2 -31.5 -4t-31.5 -4l79 262q14 47 32 107t36.5 123t35 118.5t26.5 93.5q68 5 138.5 12t137.5 19q-5 -56 -9.5 -126.5t-8 -145.5t-7.5 -148q-2 -69 -5 -142.5t-6 -150.5l-30 -4
l-30 -4q-25 -4 -55 -9zM214 271q6 0 22.5 1t31.5 2t18 1q0 13 4 53t8 84q2 26 4.5 53.5t5.5 56.5l6 87l-15 -1l-23 -86zM499 927q-1 4 -1 7v6v33l1 22q22 22 42.5 42t39.5 37q39 35 72 72q2 -22 3 -42t1 -39q0 -36 6 -77q-19 -7 -39.5 -15t-42.5 -16t-42.5 -15.5
t-39.5 -14.5zM251 768q-13 11 -23 20.5t-16 17.5q-4 5 -8 9t-7 8q14 20 28.5 40.5t29.5 39.5q25 33 54.5 69t55.5 62q20 -3 33.5 -4.5t21.5 -0.5q15 1 17 -1q4 -13 8.5 -29t9.5 -33l18 -66q5 -19 11 -37t11 -37l-24 -20q-5 -4 -10.5 -8.5t-12.5 -9.5l-25 -19l-61 118
q-20 -18 -42 -41.5t-40 -44.5t-29 -33z" />
    <glyph glyph-name="uni1EAD" unicode="&#x1ead;" horiz-adv-x="433" 
d="M259 2q2 17 4 33l4 32l6 56q1 14 2 26t2 22h-87l-40 -144q-22 -3 -52 -6.5t-56 -6.5q-16 -2 -31.5 -4t-31.5 -4l79 262q14 47 32 107t36.5 123t35 118.5t26.5 93.5q68 5 138.5 12t137.5 19q-5 -56 -9.5 -126.5t-8 -145.5t-7.5 -148q-2 -69 -5 -142.5t-6 -150.5l-30 -4
l-30 -4q-25 -4 -55 -9zM214 271q6 0 22.5 1t31.5 2t18 1q0 13 4 53t8 84q2 26 4.5 53.5t5.5 56.5l6 87l-15 -1l-23 -86zM174 -192q-40 0 -60 26.5t-20 59.5q0 35 22.5 62t67.5 27q49 0 72.5 -25t23.5 -56q0 -40 -30 -67t-76 -27zM222 770q-13 11 -23 20.5t-16 17.5
q-4 5 -8 9t-7 8q14 20 28.5 40.5t29.5 39.5q25 33 54.5 69t55.5 62q20 -3 33.5 -4.5t21.5 -0.5q15 1 17 -1q4 -13 8.5 -29t9.5 -33l18 -66q5 -19 11 -37t11 -37l-24 -20q-5 -4 -10.5 -8.5t-12.5 -9.5l-25 -19l-61 118q-20 -18 -42 -41.5t-40 -44.5t-29 -33z" />
    <glyph glyph-name="uni1EA7" unicode="&#x1ea7;" horiz-adv-x="433" 
d="M259 2q2 17 4 33l4 32l6 56q1 14 2 26t2 22h-87l-40 -144q-22 -3 -52 -6.5t-56 -6.5q-16 -2 -31.5 -4t-31.5 -4l79 262q14 47 32 107t36.5 123t35 118.5t26.5 93.5q68 5 138.5 12t137.5 19q-5 -56 -9.5 -126.5t-8 -145.5t-7.5 -148q-2 -69 -5 -142.5t-6 -150.5l-30 -4
l-30 -4q-25 -4 -55 -9zM214 271q6 0 22.5 1t31.5 2t18 1q0 13 4 53t8 84q2 26 4.5 53.5t5.5 56.5l6 87l-15 -1l-23 -86zM272 952q-16 5 -32 8.5t-32 7.5q-27 6 -55 13.5t-47 13.5q4 19 9.5 46.5t9.5 52.5l12 61q13 -13 25.5 -26.5t25.5 -26.5q21 -23 45.5 -49.5t43.5 -47.5z
M245 747q-13 11 -23 20.5t-16 17.5q-4 5 -8 9t-7 8q14 20 28.5 40.5t29.5 39.5q25 33 54.5 69t55.5 62q20 -3 33.5 -4.5t21.5 -0.5q15 1 17 -1q4 -13 8.5 -29t9.5 -33l18 -66q5 -19 11 -37t11 -37l-24 -20q-5 -4 -10.5 -8.5t-12.5 -9.5l-25 -19l-61 118q-20 -18 -42 -41.5
t-40 -44.5t-29 -33z" />
    <glyph glyph-name="uni1EA9" unicode="&#x1ea9;" horiz-adv-x="433" 
d="M259 2q2 17 4 33l4 32l6 56q1 14 2 26t2 22h-87l-40 -144q-22 -3 -52 -6.5t-56 -6.5q-16 -2 -31.5 -4t-31.5 -4l79 262q14 47 32 107t36.5 123t35 118.5t26.5 93.5q68 5 138.5 12t137.5 19q-5 -56 -9.5 -126.5t-8 -145.5t-7.5 -148q-2 -69 -5 -142.5t-6 -150.5l-30 -4
l-30 -4q-25 -4 -55 -9zM214 271q6 0 22.5 1t31.5 2t18 1q0 13 4 53t8 84q2 26 4.5 53.5t5.5 56.5l6 87l-15 -1l-23 -86zM222 770q-13 11 -23 20.5t-16 17.5q-4 5 -8 9t-7 8q14 20 28.5 40.5t29.5 39.5q25 33 54.5 69t55.5 62q20 -3 33.5 -4.5t21.5 -0.5q15 1 17 -1
q4 -13 8.5 -29t9.5 -33l18 -66q5 -19 11 -37t11 -37l-24 -20q-5 -4 -10.5 -8.5t-12.5 -9.5l-25 -19l-61 118q-20 -18 -42 -41.5t-40 -44.5t-29 -33zM343 1044q0 27 10.5 44.5t23.5 30.5q12 12 22.5 21t10.5 16q0 2 -3 5.5t-8 3.5q-10 0 -24 -10t-29 -22l-16 59
q24 19 47 27.5t52 8.5q32 0 51.5 -14.5t19.5 -49.5q0 -22 -10 -37t-25 -26q-16 -11 -27.5 -22.5t-17.5 -30.5l-19 -2z" />
    <glyph glyph-name="uni1EAB" unicode="&#x1eab;" horiz-adv-x="433" 
d="M259 2q2 17 4 33l4 32l6 56q1 14 2 26t2 22h-87l-40 -144q-22 -3 -52 -6.5t-56 -6.5q-16 -2 -31.5 -4t-31.5 -4l79 262q14 47 32 107t36.5 123t35 118.5t26.5 93.5q68 5 138.5 12t137.5 19q-5 -56 -9.5 -126.5t-8 -145.5t-7.5 -148q-2 -69 -5 -142.5t-6 -150.5l-30 -4
l-30 -4q-25 -4 -55 -9zM214 271q6 0 22.5 1t31.5 2t18 1q0 13 4 53t8 84q2 26 4.5 53.5t5.5 56.5l6 87l-15 -1l-23 -86zM222 770q-13 11 -23 20.5t-16 17.5q-4 5 -8 9t-7 8q14 20 28.5 40.5t29.5 39.5q25 33 54.5 69t55.5 62q20 -3 33.5 -4.5t21.5 -0.5q15 1 17 -1
q4 -13 8.5 -29t9.5 -33l18 -66q5 -19 11 -37t11 -37l-24 -20q-5 -4 -10.5 -8.5t-12.5 -9.5l-25 -19l-61 118q-20 -18 -42 -41.5t-40 -44.5t-29 -33zM272 1082q-13 9 -31 23.5t-23 20.5l12.5 25.5t37.5 62.5q23 35 54.5 62t68.5 27q23 0 41.5 -13t32.5 -30t23.5 -30t13.5 -13
q20 0 38 17.5t35 39t30 33.5q6 -4 11.5 -8.5t10.5 -8.5t9.5 -7.5t8.5 -6.5t7.5 -6t6.5 -7q-21 -49 -48 -87q-20 -31 -54 -58.5t-72 -27.5q-24 0 -37 10.5t-22 23.5t-20 23.5t-32 10.5q-19 0 -37.5 -14t-35 -32t-29.5 -30z" />
    <glyph glyph-name="uni0201" unicode="&#x201;" horiz-adv-x="433" 
d="M259 2q2 17 4 33l4 32l6 56q1 14 2 26t2 22h-87l-40 -144q-22 -3 -52 -6.5t-56 -6.5q-16 -2 -31.5 -4t-31.5 -4l79 262q14 47 32 107t36.5 123t35 118.5t26.5 93.5q68 5 138.5 12t137.5 19q-5 -56 -9.5 -126.5t-8 -145.5t-7.5 -148q-2 -69 -5 -142.5t-6 -150.5l-30 -4
l-30 -4q-25 -4 -55 -9zM214 271q6 0 22.5 1t31.5 2t18 1q0 13 4 53t8 84q2 26 4.5 53.5t5.5 56.5l6 87l-15 -1l-23 -86zM282 761l-50 12t-48 12q-41 9 -84 20.5t-72 20.5q6 29 14 70.5t15 80.5l18 94q20 -21 39.5 -41.5t38.5 -40.5q33 -35 70.5 -75t65.5 -72zM571 736
l-50 12t-48 12q-41 9 -84 20.5t-72 20.5q6 29 14 70.5t15 80.5l18 94q20 -21 39.5 -41.5t38.5 -40.5q33 -35 70.5 -75t65.5 -72z" />
    <glyph glyph-name="adieresis" unicode="&#xe4;" horiz-adv-x="433" 
d="M259 2q2 17 4 33l4 32l6 56q1 14 2 26t2 22h-87l-40 -144q-22 -3 -52 -6.5t-56 -6.5q-16 -2 -31.5 -4t-31.5 -4l79 262q14 47 32 107t36.5 123t35 118.5t26.5 93.5q68 5 138.5 12t137.5 19q-5 -56 -9.5 -126.5t-8 -145.5t-7.5 -148q-2 -69 -5 -142.5t-6 -150.5l-30 -4
l-30 -4q-25 -4 -55 -9zM214 271q6 0 22.5 1t31.5 2t18 1q0 13 4 53t8 84q2 26 4.5 53.5t5.5 56.5l6 87l-15 -1l-23 -86zM419 843q-40 0 -60 26.5t-20 59.5q0 35 23.5 62t67.5 27q48 0 72 -25t24 -56q0 -34 -27.5 -64t-79.5 -30zM187 843q-40 0 -60 26.5t-20 59.5
q0 34 22.5 61.5t67.5 27.5q49 0 72.5 -25t23.5 -56q0 -39 -29.5 -66.5t-76.5 -27.5z" />
    <glyph glyph-name="uni1EA1" unicode="&#x1ea1;" horiz-adv-x="433" 
d="M259 2q2 17 4 33l4 32l6 56q1 14 2 26t2 22h-87l-40 -144q-22 -3 -52 -6.5t-56 -6.5q-16 -2 -31.5 -4t-31.5 -4l79 262q14 47 32 107t36.5 123t35 118.5t26.5 93.5q68 5 138.5 12t137.5 19q-5 -56 -9.5 -126.5t-8 -145.5t-7.5 -148q-2 -69 -5 -142.5t-6 -150.5l-30 -4
l-30 -4q-25 -4 -55 -9zM214 271q6 0 22.5 1t31.5 2t18 1q0 13 4 53t8 84q2 26 4.5 53.5t5.5 56.5l6 87l-15 -1l-23 -86zM174 -192q-40 0 -60 26.5t-20 59.5q0 35 22.5 62t67.5 27q49 0 72.5 -25t23.5 -56q0 -40 -30 -67t-76 -27z" />
    <glyph glyph-name="agrave" unicode="&#xe0;" horiz-adv-x="433" 
d="M259 2q2 17 4 33l4 32l6 56q1 14 2 26t2 22h-87l-40 -144q-22 -3 -52 -6.5t-56 -6.5q-16 -2 -31.5 -4t-31.5 -4l79 262q14 47 32 107t36.5 123t35 118.5t26.5 93.5q68 5 138.5 12t137.5 19q-5 -56 -9.5 -126.5t-8 -145.5t-7.5 -148q-2 -69 -5 -142.5t-6 -150.5l-30 -4
l-30 -4q-25 -4 -55 -9zM214 271q6 0 22.5 1t31.5 2t18 1q0 13 4 53t8 84q2 26 4.5 53.5t5.5 56.5l6 87l-15 -1l-23 -86zM387 770l-50 12t-48 12q-41 9 -84 20.5t-72 20.5q6 29 14 70.5t15 80.5l18 94q20 -21 39.5 -41.5t38.5 -40.5q33 -35 70.5 -75t65.5 -72z" />
    <glyph glyph-name="uni1EA3" unicode="&#x1ea3;" horiz-adv-x="433" 
d="M259 2q2 17 4 33l4 32l6 56q1 14 2 26t2 22h-87l-40 -144q-22 -3 -52 -6.5t-56 -6.5q-16 -2 -31.5 -4t-31.5 -4l79 262q14 47 32 107t36.5 123t35 118.5t26.5 93.5q68 5 138.5 12t137.5 19q-5 -56 -9.5 -126.5t-8 -145.5t-7.5 -148q-2 -69 -5 -142.5t-6 -150.5l-30 -4
l-30 -4q-25 -4 -55 -9zM214 271q6 0 22.5 1t31.5 2t18 1q0 13 4 53t8 84q2 26 4.5 53.5t5.5 56.5l6 87l-15 -1l-23 -86zM269 758q0 27 10.5 44.5t23.5 30.5q12 12 22.5 21t10.5 16q0 2 -3 5.5t-8 3.5q-10 0 -24 -10t-29 -22l-16 59q24 19 47 27.5t52 8.5q32 0 51.5 -14.5
t19.5 -49.5q0 -22 -10 -37t-25 -26q-16 -11 -27.5 -22.5t-17.5 -30.5l-19 -2z" />
    <glyph glyph-name="uni0203" unicode="&#x203;" horiz-adv-x="433" 
d="M259 2q2 17 4 33l4 32l6 56q1 14 2 26t2 22h-87l-40 -144q-22 -3 -52 -6.5t-56 -6.5q-16 -2 -31.5 -4t-31.5 -4l79 262q14 47 32 107t36.5 123t35 118.5t26.5 93.5q68 5 138.5 12t137.5 19q-5 -56 -9.5 -126.5t-8 -145.5t-7.5 -148q-2 -69 -5 -142.5t-6 -150.5l-30 -4
l-30 -4q-25 -4 -55 -9zM214 271q6 0 22.5 1t31.5 2t18 1q0 13 4 53t8 84q2 26 4.5 53.5t5.5 56.5l6 87l-15 -1l-23 -86zM318 977q37 0 65.5 -26.5t44 -66.5t12.5 -83l-22 -20q-5 -4 -11 -9t-11 -10q-6 -5 -12 -10.5t-13 -10.5q1 25 -6.5 49.5t-21.5 41.5t-33 17
q-31 0 -48 -14q-16 -15 -29.5 -39t-33.5 -65q-13 11 -23 19.5t-18 16.5l-16 16q10 46 34 90.5t60 74t82 29.5z" />
    <glyph glyph-name="amacron" unicode="&#x101;" horiz-adv-x="433" 
d="M259 2q2 17 4 33l4 32l6 56q1 14 2 26t2 22h-87l-40 -144q-22 -3 -52 -6.5t-56 -6.5q-16 -2 -31.5 -4t-31.5 -4l79 262q14 47 32 107t36.5 123t35 118.5t26.5 93.5q68 5 138.5 12t137.5 19q-5 -56 -9.5 -126.5t-8 -145.5t-7.5 -148q-2 -69 -5 -142.5t-6 -150.5l-30 -4
l-30 -4q-25 -4 -55 -9zM214 271q6 0 22.5 1t31.5 2t18 1q0 13 4 53t8 84q2 26 4.5 53.5t5.5 56.5l6 87l-15 -1l-23 -86zM128 794q-5 17 -6 45t-1 54v40v9.5t1 8.5l374 32l16 -162l-151 -9q-50 -3 -88.5 -6t-73 -5.5t-71.5 -6.5z" />
    <glyph glyph-name="aogonek" unicode="&#x105;" horiz-adv-x="433" 
d="M259 2q2 17 4 33l4 32l6 56q1 14 2 26t2 22h-87l-40 -144q-22 -3 -52 -6.5t-56 -6.5q-16 -2 -31.5 -4t-31.5 -4l79 262q14 47 32 107t36.5 123t35 118.5t26.5 93.5q68 5 138.5 12t137.5 19q-5 -56 -9.5 -126.5t-8 -145.5t-7.5 -148q-2 -69 -5 -142.5t-6 -150.5l-30 -4
l-30 -4q-25 -4 -55 -9zM214 271q6 0 22.5 1t31.5 2t18 1q0 13 4 53t8 84q2 26 4.5 53.5t5.5 56.5l6 87l-15 -1l-23 -86zM357 -165q-58 0 -96.5 28t-38.5 69q0 39 40 78q2 0 17 3t43 6q-2 -9 -3 -16.5t-1 -13.5q0 -25 14.5 -41t35.5 -16q28 0 53 28l20 -88q-16 -19 -38.5 -28
t-45.5 -9z" />
    <glyph glyph-name="aring" unicode="&#xe5;" horiz-adv-x="433" 
d="M259 2q2 17 4 33l4 32l6 56q1 14 2 26t2 22h-87l-40 -144q-22 -3 -52 -6.5t-56 -6.5q-16 -2 -31.5 -4t-31.5 -4l79 262q14 47 32 107t36.5 123t35 118.5t26.5 93.5q68 5 138.5 12t137.5 19q-5 -56 -9.5 -126.5t-8 -145.5t-7.5 -148q-2 -69 -5 -142.5t-6 -150.5l-30 -4
l-30 -4q-25 -4 -55 -9zM214 271q6 0 22.5 1t31.5 2t18 1q0 13 4 53t8 84q2 26 4.5 53.5t5.5 56.5l6 87l-15 -1l-23 -86zM305 787q-48 0 -75 33t-27 78q0 46 29.5 80.5t86.5 34.5q53 0 82.5 -30.5t29.5 -74.5q0 -32 -16 -60t-44.5 -44.5t-65.5 -16.5zM317 851q25 0 38 16
t13 33t-11.5 30t-34.5 13q-24 0 -35.5 -15t-11.5 -32q0 -16 11.5 -30.5t30.5 -14.5z" />
    <glyph glyph-name="aringacute" unicode="&#x1fb;" horiz-adv-x="433" 
d="M259 2q2 17 4 33l4 32l6 56q1 14 2 26t2 22h-87l-40 -144q-22 -3 -52 -6.5t-56 -6.5q-16 -2 -31.5 -4t-31.5 -4l79 262q14 47 32 107t36.5 123t35 118.5t26.5 93.5q68 5 138.5 12t137.5 19q-5 -56 -9.5 -126.5t-8 -145.5t-7.5 -148q-2 -69 -5 -142.5t-6 -150.5l-30 -4
l-30 -4q-25 -4 -55 -9zM214 271q6 0 22.5 1t31.5 2t18 1q0 13 4 53t8 84q2 26 4.5 53.5t5.5 56.5l6 87l-15 -1l-23 -86zM305 787q-48 0 -75 33t-27 78q0 46 29.5 80.5t86.5 34.5q53 0 82.5 -30.5t29.5 -74.5q0 -32 -16 -60t-44.5 -44.5t-65.5 -16.5zM317 851q25 0 38 16
t13 33t-11.5 30t-34.5 13q-24 0 -35.5 -15t-11.5 -32q0 -16 11.5 -30.5t30.5 -14.5zM190 1028q-1 5 -1 10.5v9.5v18v16.5t1 16.5v34q34 35 66 65.5t62 57.5t58 55t54 56q5 -68 6 -125q0 -29 2 -58.5t6 -60.5q-29 -12 -61 -24t-66 -24q-34 -13 -66 -24.5t-61 -22.5z" />
    <glyph glyph-name="atilde" unicode="&#xe3;" horiz-adv-x="433" 
d="M259 2q2 17 4 33l4 32l6 56q1 14 2 26t2 22h-87l-40 -144q-22 -3 -52 -6.5t-56 -6.5q-16 -2 -31.5 -4t-31.5 -4l79 262q14 47 32 107t36.5 123t35 118.5t26.5 93.5q68 5 138.5 12t137.5 19q-5 -56 -9.5 -126.5t-8 -145.5t-7.5 -148q-2 -69 -5 -142.5t-6 -150.5l-30 -4
l-30 -4q-25 -4 -55 -9zM214 271q6 0 22.5 1t31.5 2t18 1q0 13 4 53t8 84q2 26 4.5 53.5t5.5 56.5l6 87l-15 -1l-23 -86zM198 796q-13 9 -31 23.5t-23 20.5l12.5 25.5t37.5 62.5q23 35 54.5 62t68.5 27q23 0 41.5 -13t32.5 -30t23.5 -30t13.5 -13q20 0 38 17.5t35 39t30 33.5
q6 -4 11.5 -8.5t10.5 -8.5t9.5 -7.5t8.5 -6.5t7.5 -6t6.5 -7q-21 -49 -48 -87q-20 -31 -54 -58.5t-72 -27.5q-24 0 -37 10.5t-22 23.5t-20 23.5t-32 10.5q-19 0 -37.5 -14t-35 -32t-29.5 -30z" />
    <glyph glyph-name="ae" unicode="&#xe6;" horiz-adv-x="516" 
d="M246 -1v3h-2q11 49 20 95t13 74h-73l-52 -144q-22 -3 -53.5 -6.5t-59.5 -6.5q-16 -2 -33.5 -4t-34.5 -4q26 67 51.5 132.5t50.5 129.5q20 50 43.5 111t47 123t43.5 116.5t33 91.5q41 4 69.5 4.5t54 0.5t57.5 1.5t80 5.5l104 8l-39 -121q-9 2 -26 3t-40 1l-25 -179
q17 2 24.5 3t25.5 1h13t11 1q-2 -14 -3.5 -27.5t-3.5 -27.5l-9 -55q-5 -1 -11 -1h-12q-7 -1 -13 -1t-11 -1q-6 -1 -12 -1t-13 -1l-26 -183l84 6l-10 -114zM236 271q4 0 17 0.5t26 1.5t16 2q1 4 4.5 27t9.5 56t12 65l35 186l-10 -1l-33 -86z" />
    <glyph glyph-name="aeacute" unicode="&#x1fd;" horiz-adv-x="516" 
d="M246 -1v3h-2q11 49 20 95t13 74h-73l-52 -144q-22 -3 -53.5 -6.5t-59.5 -6.5q-16 -2 -33.5 -4t-34.5 -4q26 67 51.5 132.5t50.5 129.5q20 50 43.5 111t47 123t43.5 116.5t33 91.5q41 4 69.5 4.5t54 0.5t57.5 1.5t80 5.5l104 8l-39 -121q-9 2 -26 3t-40 1l-25 -179
q17 2 24.5 3t25.5 1h13t11 1q-2 -14 -3.5 -27.5t-3.5 -27.5l-9 -55q-5 -1 -11 -1h-12q-7 -1 -13 -1t-11 -1q-6 -1 -12 -1t-13 -1l-26 -183l84 6l-10 -114zM236 271q4 0 17 0.5t26 1.5t16 2q1 4 4.5 27t9.5 56t12 65l35 186l-10 -1l-33 -86zM332 733q-1 5 -1 10.5v9.5v18
v16.5t1 16.5v34q34 35 66 65.5t62 57.5t58 55t54 56q5 -68 6 -125q0 -29 2 -58.5t6 -60.5q-29 -12 -61 -24t-66 -24q-34 -13 -66 -24.5t-61 -22.5z" />
    <glyph glyph-name="b" unicode="b" horiz-adv-x="428" 
d="M68 -4q-37 0 -69 6q48 175 76.5 352.5t54.5 357.5q52 11 108 19.5t116 8.5q33 0 70 -11.5t62.5 -41t25.5 -83.5q0 -50 -21 -92t-53 -72t-66 -43q14 -7 33 -25t33 -48t14 -73q0 -60 -35.5 -108.5t-94.5 -80.5q-57 -32 -123 -49t-131 -17zM246 479q31 6 59 16t45.5 23
t17.5 28q0 19 -15 30t-36 16t-39 5h-10q-7 -40 -13 -69.5t-9 -48.5zM195 198q20 2 44 7t46 15.5t36.5 28t14.5 42.5q0 24 -16 38t-38.5 20.5t-42.5 6.5h-8q-5 0 -8 -1q-6 -37 -14 -78t-14 -79z" />
    <glyph glyph-name="c" unicode="c" horiz-adv-x="414" 
d="M182 -2q-63 0 -103 59t-40 162q0 94 26 185.5t73 164.5t111.5 117.5t142.5 44.5q49 0 84 -38t35 -102v-12v-7t-1 -7l-131 -35q-12 25 -28 25q-24 0 -50.5 -39t-50.5 -93q-16 -36 -28.5 -74t-19.5 -71t-7 -54q0 -31 9 -45q7 -13 22 -13t33 14.5t33.5 36.5t20.5 44l114 -46
q-49 -112 -116.5 -164.5t-128.5 -52.5z" />
    <glyph glyph-name="cacute" unicode="&#x107;" horiz-adv-x="414" 
d="M182 -2q-63 0 -103 59t-40 162q0 94 26 185.5t73 164.5t111.5 117.5t142.5 44.5q49 0 84 -38t35 -102v-12v-7t-1 -7l-131 -35q-12 25 -28 25q-24 0 -50.5 -39t-50.5 -93q-16 -36 -28.5 -74t-19.5 -71t-7 -54q0 -31 9 -45q7 -13 22 -13t33 14.5t33.5 36.5t20.5 44l114 -46
q-49 -112 -116.5 -164.5t-128.5 -52.5zM247 736q-1 5 -1 10.5v9.5v18v16.5t1 16.5v34q34 35 66 65.5t62 57.5t58 55t54 56q5 -68 6 -125q0 -29 2 -58.5t6 -60.5q-29 -12 -61 -24t-66 -24q-34 -13 -66 -24.5t-61 -22.5z" />
    <glyph glyph-name="ccaron" unicode="&#x10d;" horiz-adv-x="414" 
d="M182 -2q-63 0 -103 59t-40 162q0 94 26 185.5t73 164.5t111.5 117.5t142.5 44.5q49 0 84 -38t35 -102v-12v-7t-1 -7l-131 -35q-12 25 -28 25q-24 0 -50.5 -39t-50.5 -93q-16 -36 -28.5 -74t-19.5 -71t-7 -54q0 -31 9 -45q7 -13 22 -13t33 14.5t33.5 36.5t20.5 44l114 -46
q-49 -112 -116.5 -164.5t-128.5 -52.5zM365 756q-13 1 -24 1.5t-18 0.5h-16q-4 -1 -10 -1q-4 0 -4 1q-4 13 -9.5 28.5t-10.5 32.5q-6 17 -12 33t-11 32l-12 36t-13 37l22 21q5 5 11 10l12 10l24 20l67 -115q17 19 39.5 46t41.5 50t24 29q13 -11 23 -20t18 -17l16 -15
q-13 -22 -26.5 -42.5t-27.5 -40.5q-23 -34 -51 -72t-53 -65z" />
    <glyph glyph-name="ccedilla" unicode="&#xe7;" horiz-adv-x="414" 
d="M182 -2q-63 0 -103 59t-40 162q0 94 26 185.5t73 164.5t111.5 117.5t142.5 44.5q49 0 84 -38t35 -102v-12v-7t-1 -7l-131 -35q-12 25 -28 25q-24 0 -50.5 -39t-50.5 -93q-16 -36 -28.5 -74t-19.5 -71t-7 -54q0 -31 9 -45q7 -13 22 -13t33 14.5t33.5 36.5t20.5 44l114 -46
q-49 -112 -116.5 -164.5t-128.5 -52.5zM167 -157q-24 0 -46.5 9t-37.5 28l19 88q25 -28 53 -28q22 0 36.5 16t14.5 41q0 6 -1.5 13.5t-3.5 16.5q28 -3 43 -6t18 -3q40 -39 40 -78q0 -28 -18.5 -50t-49 -34.5t-67.5 -12.5z" />
    <glyph glyph-name="ccircumflex" unicode="&#x109;" horiz-adv-x="414" 
d="M182 -2q-63 0 -103 59t-40 162q0 94 26 185.5t73 164.5t111.5 117.5t142.5 44.5q49 0 84 -38t35 -102v-12v-7t-1 -7l-131 -35q-12 25 -28 25q-24 0 -50.5 -39t-50.5 -93q-16 -36 -28.5 -74t-19.5 -71t-7 -54q0 -31 9 -45q7 -13 22 -13t33 14.5t33.5 36.5t20.5 44l114 -46
q-49 -112 -116.5 -164.5t-128.5 -52.5zM279 741q-13 11 -23 20.5t-16 17.5q-4 5 -8 9t-7 8q14 20 28.5 40.5t29.5 39.5q25 33 54.5 69t55.5 62q20 -3 33.5 -4.5t21.5 -0.5q15 1 17 -1q4 -13 8.5 -29t9.5 -33l18 -66q5 -19 11 -37t11 -37l-24 -20q-5 -4 -10.5 -8.5
t-12.5 -9.5l-25 -19l-61 118q-20 -18 -42 -41.5t-40 -44.5t-29 -33z" />
    <glyph glyph-name="cdotaccent" unicode="&#x10b;" horiz-adv-x="414" 
d="M182 -2q-63 0 -103 59t-40 162q0 94 26 185.5t73 164.5t111.5 117.5t142.5 44.5q49 0 84 -38t35 -102v-12v-7t-1 -7l-131 -35q-12 25 -28 25q-24 0 -50.5 -39t-50.5 -93q-16 -36 -28.5 -74t-19.5 -71t-7 -54q0 -31 9 -45q7 -13 22 -13t33 14.5t33.5 36.5t20.5 44l114 -46
q-49 -112 -116.5 -164.5t-128.5 -52.5zM364 768q-40 0 -60 26t-20 60q0 32 22 60.5t68 28.5q49 0 72.5 -25t23.5 -57q0 -35 -27.5 -64t-78.5 -29z" />
    <glyph glyph-name="d" unicode="d" horiz-adv-x="441" 
d="M60 -5q-14 0 -28 1.5t-28 3.5l53 269q10 55 21.5 116.5t22.5 122t19.5 112.5t13.5 88q43 8 87 15t90 7q74 0 117 -30.5t62 -80t19 -108.5q0 -53 -15 -111.5t-42.5 -116t-65.5 -108.5q-59 -79 -143.5 -129.5t-182.5 -50.5zM179 121q35 23 66.5 70t59.5 113q25 61 39 115.5
t14 90.5q0 37 -20.5 58t-64.5 21q-16 -86 -32.5 -159t-32 -147t-29.5 -162z" />
    <glyph glyph-name="dcaron" unicode="&#x10f;" horiz-adv-x="441" 
d="M60 -5q-14 0 -28 1.5t-28 3.5l53 269q10 55 21.5 116.5t22.5 122t19.5 112.5t13.5 88q43 8 87 15t90 7q74 0 117 -30.5t62 -80t19 -108.5q0 -53 -15 -111.5t-42.5 -116t-65.5 -108.5q-59 -79 -143.5 -129.5t-182.5 -50.5zM179 121q35 23 66.5 70t59.5 113q25 61 39 115.5
t14 90.5q0 37 -20.5 58t-64.5 21q-16 -86 -32.5 -159t-32 -147t-29.5 -162zM325 756q-13 1 -24 1.5t-18 0.5h-16q-4 -1 -10 -1q-4 0 -4 1q-4 13 -9.5 28.5t-10.5 32.5q-6 17 -12 33t-11 32l-12 36t-13 37l22 21q5 5 11 10l12 10l24 20l67 -115q17 19 39.5 46t41.5 50t24 29
q13 -11 23 -20t18 -17l16 -15q-13 -22 -26.5 -42.5t-27.5 -40.5q-23 -34 -51 -72t-53 -65z" />
    <glyph glyph-name="dcroat" unicode="&#x111;" horiz-adv-x="457" 
d="M76 -5q-14 0 -28 1.5t-28 3.5l53 269q2 12 4.5 24t4.5 25q-12 -1 -23.5 -1h-22.5l48 177q8 0 15.5 -0.5t14.5 -0.5q12 64 21.5 120.5t14.5 94.5q43 8 87 15t90 7q74 0 117 -30.5t62 -80t19 -108.5q0 -53 -15 -111.5t-42.5 -116t-65.5 -108.5q-59 -79 -143.5 -129.5
t-182.5 -50.5zM195 121q35 23 66.5 70t59.5 113q25 61 39 115.5t14 90.5q0 37 -20.5 58t-64.5 21q-5 -26 -10 -50.5t-10 -48.5q25 1 45.5 1.5t29.5 1.5l-34 -179q-32 4 -78 5q-10 -46 -19.5 -94.5t-17.5 -103.5z" />
    <glyph glyph-name="uni01C6" unicode="&#x1c6;" horiz-adv-x="872" 
d="M60 -5q-14 0 -28 1.5t-28 3.5l53 269q10 55 21.5 116.5t22.5 122t19.5 112.5t13.5 88q43 8 87 15t90 7q74 0 117 -30.5t62 -80t19 -108.5q0 -53 -15 -111.5t-42.5 -116t-65.5 -108.5q-59 -79 -143.5 -129.5t-182.5 -50.5zM179 121q35 23 66.5 70t59.5 113q25 61 39 115.5
t14 90.5q0 37 -20.5 58t-64.5 21q-16 -86 -32.5 -159t-32 -147t-29.5 -162zM450 9v146l284 387q-22 0 -56 -3.5t-64.5 -8t-44.5 -7.5l-24 -2l19 157l409 29l-26 -138l-273 -388q14 0 46.5 1.5t74 4t80.5 5.5v-152q-12 0 -61.5 -2t-133.5 -7q-76 -5 -137 -10.5t-93 -11.5z
M836 756q-13 1 -24 1.5t-18 0.5h-16q-4 -1 -10 -1q-4 0 -4 1q-4 13 -9.5 28.5t-10.5 32.5q-6 17 -12 33t-11 32l-12 36t-13 37l22 21q5 5 11 10l12 10l24 20l67 -115q17 19 39.5 46t41.5 50t24 29q13 -11 23 -20t18 -17l16 -15q-13 -22 -26.5 -42.5t-27.5 -40.5
q-23 -34 -51 -72t-53 -65z" />
    <glyph glyph-name="eth" unicode="&#xf0;" horiz-adv-x="445" 
d="M136 2q-32 0 -62.5 9.5t-60.5 30.5l17 86q4 20 9 43t10 49q11 51 21 111q-4 -1 -7 -1h-6h-23l33 106q2 -1 7 -1h16q14 74 26 144.5t20 128.5q43 8 87 15t90 7q68 0 109.5 -31t60 -85t18.5 -123q0 -83 -26 -167.5t-73 -156.5q-48 -73 -116.5 -119t-149.5 -46zM171 121
q35 21 67.5 63.5t58 95.5t40 108t14.5 102q0 51 -21.5 84.5t-63.5 33.5q-10 -45 -18.5 -87t-16.5 -86h10.5t10.5 1h18h8t8 1l-24 -108h-15h-7.5t-7.5 1h-19q-5 -24 -9.5 -48.5t-9.5 -50.5q-5 -25 -10.5 -53t-12.5 -57z" />
    <glyph glyph-name="e" unicode="e" horiz-adv-x="341" 
d="M8 -1l131 711l316 27q-7 -22 -12 -45q-5 -19 -9.5 -39.5t-7.5 -36.5q-13 -1 -37 -1.5t-49 -1t-43 -0.5h-19l-35 -179l58 3q11 1 22.5 1h22.5h20t14 1q-2 -14 -3.5 -27.5t-3.5 -27.5l-9 -55q-5 -1 -13 -1h-19q-11 -1 -23 -1t-23 -1q-13 -1 -27 -1t-30 -1l-34 -184l146 23
l-10 -114z" />
    <glyph glyph-name="eacute" unicode="&#xe9;" horiz-adv-x="341" 
d="M8 -1l131 711l316 27q-7 -22 -12 -45q-5 -19 -9.5 -39.5t-7.5 -36.5q-13 -1 -37 -1.5t-49 -1t-43 -0.5h-19l-35 -179l58 3q11 1 22.5 1h22.5h20t14 1q-2 -14 -3.5 -27.5t-3.5 -27.5l-9 -55q-5 -1 -13 -1h-19q-11 -1 -23 -1t-23 -1q-13 -1 -27 -1t-30 -1l-34 -184l146 23
l-10 -114zM182 755q-1 5 -1 10.5v9.5v18v16.5t1 16.5v34q34 35 66 65.5t62 57.5t58 55t54 56q5 -68 6 -125q0 -29 2 -58.5t6 -60.5q-29 -12 -61 -24t-66 -24q-34 -13 -66 -24.5t-61 -22.5z" />
    <glyph glyph-name="ebreve" unicode="&#x115;" horiz-adv-x="341" 
d="M8 -1l131 711l316 27q-7 -22 -12 -45q-5 -19 -9.5 -39.5t-7.5 -36.5q-13 -1 -37 -1.5t-49 -1t-43 -0.5h-19l-35 -179l58 3q11 1 22.5 1h22.5h20t14 1q-2 -14 -3.5 -27.5t-3.5 -27.5l-9 -55q-5 -1 -13 -1h-19q-11 -1 -23 -1t-23 -1q-13 -1 -27 -1t-30 -1l-34 -184l146 23
l-10 -114zM303 789q-36 0 -65 26.5t-44 67t-13 82.5l22 20q5 5 11 10l12 10q5 5 11 10t13 10q-1 -24 6.5 -49t21.5 -42t33 -17q33 0 49 15q17 14 29.5 38t32.5 65q13 -11 23 -19.5t18 -16.5l16 -16q-9 -45 -33.5 -90t-60.5 -74.5t-82 -29.5z" />
    <glyph glyph-name="ecaron" unicode="&#x11b;" horiz-adv-x="341" 
d="M8 -1l131 711l316 27q-7 -22 -12 -45q-5 -19 -9.5 -39.5t-7.5 -36.5q-13 -1 -37 -1.5t-49 -1t-43 -0.5h-19l-35 -179l58 3q11 1 22.5 1h22.5h20t14 1q-2 -14 -3.5 -27.5t-3.5 -27.5l-9 -55q-5 -1 -13 -1h-19q-11 -1 -23 -1t-23 -1q-13 -1 -27 -1t-30 -1l-34 -184l146 23
l-10 -114zM300 775q-13 1 -24 1.5t-18 0.5h-16q-4 -1 -10 -1q-4 0 -4 1q-4 13 -9.5 28.5t-10.5 32.5q-6 17 -12 33t-11 32l-12 36t-13 37l22 21q5 5 11 10l12 10l24 20l67 -115q17 19 39.5 46t41.5 50t24 29q13 -11 23 -20t18 -17l16 -15q-13 -22 -26.5 -42.5t-27.5 -40.5
q-23 -34 -51 -72t-53 -65z" />
    <glyph glyph-name="ecircumflex" unicode="&#xea;" horiz-adv-x="341" 
d="M8 -1l131 711l316 27q-7 -22 -12 -45q-5 -19 -9.5 -39.5t-7.5 -36.5q-13 -1 -37 -1.5t-49 -1t-43 -0.5h-19l-35 -179l58 3q11 1 22.5 1h22.5h20t14 1q-2 -14 -3.5 -27.5t-3.5 -27.5l-9 -55q-5 -1 -13 -1h-19q-11 -1 -23 -1t-23 -1q-13 -1 -27 -1t-30 -1l-34 -184l146 23
l-10 -114zM214 760q-13 11 -23 20.5t-16 17.5q-4 5 -8 9t-7 8q14 20 28.5 40.5t29.5 39.5q25 33 54.5 69t55.5 62q20 -3 33.5 -4.5t21.5 -0.5q15 1 17 -1q4 -13 8.5 -29t9.5 -33l18 -66q5 -19 11 -37t11 -37l-24 -20q-5 -4 -10.5 -8.5t-12.5 -9.5l-25 -19l-61 118
q-20 -18 -42 -41.5t-40 -44.5t-29 -33z" />
    <glyph glyph-name="uni1EBF" unicode="&#x1ebf;" horiz-adv-x="341" 
d="M8 -1l131 711l316 27q-7 -22 -12 -45q-5 -19 -9.5 -39.5t-7.5 -36.5q-13 -1 -37 -1.5t-49 -1t-43 -0.5h-19l-35 -179l58 3q11 1 22.5 1h22.5h20t14 1q-2 -14 -3.5 -27.5t-3.5 -27.5l-9 -55q-5 -1 -13 -1h-19q-11 -1 -23 -1t-23 -1q-13 -1 -27 -1t-30 -1l-34 -184l146 23
l-10 -114zM491 917q-1 4 -1 7v6v33l1 22q22 22 42.5 42t39.5 37q39 35 72 72q2 -22 3 -42t1 -39q0 -36 6 -77q-19 -7 -39.5 -15t-42.5 -16t-42.5 -15.5t-39.5 -14.5zM243 758q-13 11 -23 20.5t-16 17.5q-4 5 -8 9t-7 8q14 20 28.5 40.5t29.5 39.5q25 33 54.5 69t55.5 62
q20 -3 33.5 -4.5t21.5 -0.5q15 1 17 -1q4 -13 8.5 -29t9.5 -33l18 -66q5 -19 11 -37t11 -37l-24 -20q-5 -4 -10.5 -8.5t-12.5 -9.5l-25 -19l-61 118q-20 -18 -42 -41.5t-40 -44.5t-29 -33z" />
    <glyph glyph-name="uni1EC7" unicode="&#x1ec7;" horiz-adv-x="341" 
d="M8 -1l131 711l316 27q-7 -22 -12 -45q-5 -19 -9.5 -39.5t-7.5 -36.5q-13 -1 -37 -1.5t-49 -1t-43 -0.5h-19l-35 -179l58 3q11 1 22.5 1h22.5h20t14 1q-2 -14 -3.5 -27.5t-3.5 -27.5l-9 -55q-5 -1 -13 -1h-19q-11 -1 -23 -1t-23 -1q-13 -1 -27 -1t-30 -1l-34 -184l146 23
l-10 -114zM157 -182q-40 0 -60 26.5t-20 59.5q0 35 22.5 62t67.5 27q49 0 72.5 -25t23.5 -56q0 -40 -30 -67t-76 -27zM214 760q-13 11 -23 20.5t-16 17.5q-4 5 -8 9t-7 8q14 20 28.5 40.5t29.5 39.5q25 33 54.5 69t55.5 62q20 -3 33.5 -4.5t21.5 -0.5q15 1 17 -1
q4 -13 8.5 -29t9.5 -33l18 -66q5 -19 11 -37t11 -37l-24 -20q-5 -4 -10.5 -8.5t-12.5 -9.5l-25 -19l-61 118q-20 -18 -42 -41.5t-40 -44.5t-29 -33z" />
    <glyph glyph-name="uni1EC1" unicode="&#x1ec1;" horiz-adv-x="341" 
d="M8 -1l131 711l316 27q-7 -22 -12 -45q-5 -19 -9.5 -39.5t-7.5 -36.5q-13 -1 -37 -1.5t-49 -1t-43 -0.5h-19l-35 -179l58 3q11 1 22.5 1h22.5h20t14 1q-2 -14 -3.5 -27.5t-3.5 -27.5l-9 -55q-5 -1 -13 -1h-19q-11 -1 -23 -1t-23 -1q-13 -1 -27 -1t-30 -1l-34 -184l146 23
l-10 -114zM264 942q-16 5 -32 8.5t-32 7.5q-27 6 -55 13.5t-47 13.5q4 19 9.5 46.5t9.5 52.5l12 61q13 -13 25.5 -26.5t25.5 -26.5q21 -23 45.5 -49.5t43.5 -47.5zM237 737q-13 11 -23 20.5t-16 17.5q-4 5 -8 9t-7 8q14 20 28.5 40.5t29.5 39.5q25 33 54.5 69t55.5 62
q20 -3 33.5 -4.5t21.5 -0.5q15 1 17 -1q4 -13 8.5 -29t9.5 -33l18 -66q5 -19 11 -37t11 -37l-24 -20q-5 -4 -10.5 -8.5t-12.5 -9.5l-25 -19l-61 118q-20 -18 -42 -41.5t-40 -44.5t-29 -33z" />
    <glyph glyph-name="uni1EC3" unicode="&#x1ec3;" horiz-adv-x="341" 
d="M8 -1l131 711l316 27q-7 -22 -12 -45q-5 -19 -9.5 -39.5t-7.5 -36.5q-13 -1 -37 -1.5t-49 -1t-43 -0.5h-19l-35 -179l58 3q11 1 22.5 1h22.5h20t14 1q-2 -14 -3.5 -27.5t-3.5 -27.5l-9 -55q-5 -1 -13 -1h-19q-11 -1 -23 -1t-23 -1q-13 -1 -27 -1t-30 -1l-34 -184l146 23
l-10 -114zM498 929q0 27 10.5 44.5t23.5 30.5q12 12 22.5 21t10.5 16q0 2 -3 5.5t-8 3.5q-10 0 -24 -10t-29 -22l-16 59q46 36 89 36q10 0 23 -2t20 -7q9 -6 17 -17.5t11 -37.5q0 -22 -10 -37t-25 -26q-16 -11 -27.5 -22.5t-17.5 -30.5l-19 -2zM250 752q-13 11 -23 20.5
t-16 17.5q-4 5 -8 9t-7 8q14 20 28.5 40.5t29.5 39.5q25 33 54.5 69t55.5 62q20 -3 33.5 -4.5t21.5 -0.5q15 1 17 -1q4 -13 8.5 -29t9.5 -33l18 -66q5 -19 11 -37t11 -37l-24 -20q-5 -4 -10.5 -8.5t-12.5 -9.5l-25 -19l-61 118q-20 -18 -42 -41.5t-40 -44.5t-29 -33z" />
    <glyph glyph-name="uni1EC5" unicode="&#x1ec5;" horiz-adv-x="341" 
d="M8 -1l131 711l316 27q-7 -22 -12 -45q-5 -19 -9.5 -39.5t-7.5 -36.5q-13 -1 -37 -1.5t-49 -1t-43 -0.5h-19l-35 -179l58 3q11 1 22.5 1h22.5h20t14 1q-2 -14 -3.5 -27.5t-3.5 -27.5l-9 -55q-5 -1 -13 -1h-19q-11 -1 -23 -1t-23 -1q-13 -1 -27 -1t-30 -1l-34 -184l146 23
l-10 -114zM214 760q-13 11 -23 20.5t-16 17.5q-4 5 -8 9t-7 8q14 20 28.5 40.5t29.5 39.5q25 33 54.5 69t55.5 62q20 -3 33.5 -4.5t21.5 -0.5q15 1 17 -1q4 -13 8.5 -29t9.5 -33l18 -66q5 -19 11 -37t11 -37l-24 -20q-5 -4 -10.5 -8.5t-12.5 -9.5l-25 -19l-61 118
q-20 -18 -42 -41.5t-40 -44.5t-29 -33zM264 1072q-13 9 -31 23.5t-23 20.5l12.5 25.5t37.5 62.5q23 35 54.5 62t68.5 27q23 0 41.5 -13t32.5 -30t23.5 -30t13.5 -13q20 0 38 17.5t35 39t30 33.5q6 -4 11.5 -8.5t10.5 -8.5t9.5 -7.5t8.5 -6.5t7.5 -6t6.5 -7q-21 -49 -48 -87
q-20 -31 -54 -58.5t-72 -27.5q-24 0 -37 10.5t-22 23.5t-20 23.5t-32 10.5q-19 0 -37.5 -14t-35 -32t-29.5 -30z" />
    <glyph glyph-name="uni0205" unicode="&#x205;" horiz-adv-x="341" 
d="M8 -1l131 711l316 27q-7 -22 -12 -45q-5 -19 -9.5 -39.5t-7.5 -36.5q-13 -1 -37 -1.5t-49 -1t-43 -0.5h-19l-35 -179l58 3q11 1 22.5 1h22.5h20t14 1q-2 -14 -3.5 -27.5t-3.5 -27.5l-9 -55q-5 -1 -13 -1h-19q-11 -1 -23 -1t-23 -1q-13 -1 -27 -1t-30 -1l-34 -184l146 23
l-10 -114zM274 751l-50 12t-48 12q-41 9 -84 20.5t-72 20.5q6 29 14 70.5t15 80.5l18 94q20 -21 39.5 -41.5t38.5 -40.5q33 -35 70.5 -75t65.5 -72zM563 726l-50 12t-48 12q-41 9 -84 20.5t-72 20.5q6 29 14 70.5t15 80.5l18 94q20 -21 39.5 -41.5t38.5 -40.5
q33 -35 70.5 -75t65.5 -72z" />
    <glyph glyph-name="edieresis" unicode="&#xeb;" horiz-adv-x="341" 
d="M8 -1l131 711l316 27q-7 -22 -12 -45q-5 -19 -9.5 -39.5t-7.5 -36.5q-13 -1 -37 -1.5t-49 -1t-43 -0.5h-19l-35 -179l58 3q11 1 22.5 1h22.5h20t14 1q-2 -14 -3.5 -27.5t-3.5 -27.5l-9 -55q-5 -1 -13 -1h-19q-11 -1 -23 -1t-23 -1q-13 -1 -27 -1t-30 -1l-34 -184l146 23
l-10 -114zM411 833q-40 0 -60 26.5t-20 59.5q0 35 23.5 62t67.5 27q48 0 72 -25t24 -56q0 -34 -27.5 -64t-79.5 -30zM179 833q-40 0 -60 26.5t-20 59.5q0 34 22.5 61.5t67.5 27.5q49 0 72.5 -25t23.5 -56q0 -39 -29.5 -66.5t-76.5 -27.5z" />
    <glyph glyph-name="edotaccent" unicode="&#x117;" horiz-adv-x="341" 
d="M8 -1l131 711l316 27q-7 -22 -12 -45q-5 -19 -9.5 -39.5t-7.5 -36.5q-13 -1 -37 -1.5t-49 -1t-43 -0.5h-19l-35 -179l58 3q11 1 22.5 1h22.5h20t14 1q-2 -14 -3.5 -27.5t-3.5 -27.5l-9 -55q-5 -1 -13 -1h-19q-11 -1 -23 -1t-23 -1q-13 -1 -27 -1t-30 -1l-34 -184l146 23
l-10 -114zM299 787q-40 0 -60 26t-20 60q0 32 22 60.5t68 28.5q49 0 72.5 -25t23.5 -57q0 -35 -27.5 -64t-78.5 -29z" />
    <glyph glyph-name="uni1EB9" unicode="&#x1eb9;" horiz-adv-x="341" 
d="M8 -1l131 711l316 27q-7 -22 -12 -45q-5 -19 -9.5 -39.5t-7.5 -36.5q-13 -1 -37 -1.5t-49 -1t-43 -0.5h-19l-35 -179l58 3q11 1 22.5 1h22.5h20t14 1q-2 -14 -3.5 -27.5t-3.5 -27.5l-9 -55q-5 -1 -13 -1h-19q-11 -1 -23 -1t-23 -1q-13 -1 -27 -1t-30 -1l-34 -184l146 23
l-10 -114zM157 -182q-40 0 -60 26.5t-20 59.5q0 35 22.5 62t67.5 27q49 0 72.5 -25t23.5 -56q0 -40 -30 -67t-76 -27z" />
    <glyph glyph-name="egrave" unicode="&#xe8;" horiz-adv-x="341" 
d="M8 -1l131 711l316 27q-7 -22 -12 -45q-5 -19 -9.5 -39.5t-7.5 -36.5q-13 -1 -37 -1.5t-49 -1t-43 -0.5h-19l-35 -179l58 3q11 1 22.5 1h22.5h20t14 1q-2 -14 -3.5 -27.5t-3.5 -27.5l-9 -55q-5 -1 -13 -1h-19q-11 -1 -23 -1t-23 -1q-13 -1 -27 -1t-30 -1l-34 -184l146 23
l-10 -114zM379 760l-50 12t-48 12q-41 9 -84 20.5t-72 20.5q6 29 14 70.5t15 80.5l18 94q20 -21 39.5 -41.5t38.5 -40.5q33 -35 70.5 -75t65.5 -72z" />
    <glyph glyph-name="uni1EBB" unicode="&#x1ebb;" horiz-adv-x="341" 
d="M8 -1l131 711l316 27q-7 -22 -12 -45q-5 -19 -9.5 -39.5t-7.5 -36.5q-13 -1 -37 -1.5t-49 -1t-43 -0.5h-19l-35 -179l58 3q11 1 22.5 1h22.5h20t14 1q-2 -14 -3.5 -27.5t-3.5 -27.5l-9 -55q-5 -1 -13 -1h-19q-11 -1 -23 -1t-23 -1q-13 -1 -27 -1t-30 -1l-34 -184l146 23
l-10 -114zM261 748q0 27 10.5 44.5t23.5 30.5q12 12 22.5 21t10.5 16q0 2 -3 5.5t-8 3.5q-10 0 -24 -10t-29 -22l-16 59q24 19 47 27.5t52 8.5q32 0 51.5 -14.5t19.5 -49.5q0 -22 -10 -37t-25 -26q-16 -11 -27.5 -22.5t-17.5 -30.5l-19 -2z" />
    <glyph glyph-name="uni0207" unicode="&#x207;" horiz-adv-x="341" 
d="M8 -1l131 711l316 27q-7 -22 -12 -45q-5 -19 -9.5 -39.5t-7.5 -36.5q-13 -1 -37 -1.5t-49 -1t-43 -0.5h-19l-35 -179l58 3q11 1 22.5 1h22.5h20t14 1q-2 -14 -3.5 -27.5t-3.5 -27.5l-9 -55q-5 -1 -13 -1h-19q-11 -1 -23 -1t-23 -1q-13 -1 -27 -1t-30 -1l-34 -184l146 23
l-10 -114zM335 996q37 0 65.5 -26.5t44 -66.5t12.5 -83l-22 -20q-5 -4 -11 -9t-11 -10q-6 -5 -12 -10.5t-13 -10.5q1 25 -6.5 49.5t-21.5 41.5t-33 17q-31 0 -48 -14q-16 -15 -29.5 -39t-33.5 -65q-13 11 -23 19.5t-18 16.5l-16 16q10 46 34 90.5t60 74t82 29.5z" />
    <glyph glyph-name="emacron" unicode="&#x113;" horiz-adv-x="341" 
d="M8 -1l131 711l316 27q-7 -22 -12 -45q-5 -19 -9.5 -39.5t-7.5 -36.5q-13 -1 -37 -1.5t-49 -1t-43 -0.5h-19l-35 -179l58 3q11 1 22.5 1h22.5h20t14 1q-2 -14 -3.5 -27.5t-3.5 -27.5l-9 -55q-5 -1 -13 -1h-19q-11 -1 -23 -1t-23 -1q-13 -1 -27 -1t-30 -1l-34 -184l146 23
l-10 -114zM120 784q-5 17 -6 45t-1 54v40v9.5t1 8.5l374 32l16 -162l-151 -9q-50 -3 -88.5 -6t-73 -5.5t-71.5 -6.5z" />
    <glyph glyph-name="eogonek" unicode="&#x119;" horiz-adv-x="341" 
d="M8 -1l131 711l316 27q-7 -22 -12 -45q-5 -19 -9.5 -39.5t-7.5 -36.5q-13 -1 -37 -1.5t-49 -1t-43 -0.5h-19l-35 -179l58 3q11 1 22.5 1h22.5h20t14 1q-2 -14 -3.5 -27.5t-3.5 -27.5l-9 -55q-5 -1 -13 -1h-19q-11 -1 -23 -1t-23 -1q-13 -1 -27 -1t-30 -1l-34 -184l146 23
l-10 -114zM241 -136q-58 0 -96.5 28t-38.5 69q0 39 40 78q2 0 17 3t43 6q-2 -9 -3 -16.5t-1 -13.5q0 -25 14.5 -41t35.5 -16q28 0 53 28l20 -88q-16 -19 -38.5 -28t-45.5 -9z" />
    <glyph glyph-name="uni1EBD" unicode="&#x1ebd;" horiz-adv-x="341" 
d="M8 -1l131 711l316 27q-7 -22 -12 -45q-5 -19 -9.5 -39.5t-7.5 -36.5q-13 -1 -37 -1.5t-49 -1t-43 -0.5h-19l-35 -179l58 3q11 1 22.5 1h22.5h20t14 1q-2 -14 -3.5 -27.5t-3.5 -27.5l-9 -55q-5 -1 -13 -1h-19q-11 -1 -23 -1t-23 -1q-13 -1 -27 -1t-30 -1l-34 -184l146 23
l-10 -114zM190 786q-13 9 -31 23.5t-23 20.5l12.5 25.5t37.5 62.5q23 35 54.5 62t68.5 27q23 0 41.5 -13t32.5 -30t23.5 -30t13.5 -13q20 0 38 17.5t35 39t30 33.5q6 -4 11.5 -8.5t10.5 -8.5t9.5 -7.5t8.5 -6.5t7.5 -6t6.5 -7q-21 -49 -48 -87q-20 -31 -54 -58.5t-72 -27.5
q-24 0 -37 10.5t-22 23.5t-20 23.5t-32 10.5q-19 0 -37.5 -14t-35 -32t-29.5 -30z" />
    <glyph glyph-name="uni0259" unicode="&#x259;" horiz-adv-x="585" 
d="M265 513l-107 108q15 40 47 69t70.5 45t71.5 16q66 0 125 -32t95.5 -101t36.5 -182q0 -82 -23.5 -160t-66.5 -140t-102.5 -99t-131.5 -37q-60 0 -106.5 33.5t-72.5 90.5t-28 128q-2 85 35 178h325q-6 68 -29 108t-58 40q-14 0 -32 -11.5t-32 -27t-17 -26.5zM202 261
q0 -49 16.5 -82.5t50.5 -33.5q42 0 73.5 22.5t52 60t30.5 82.5h-213q-4 -12 -7 -24.5t-3 -24.5z" />
    <glyph glyph-name="f" unicode="f" horiz-adv-x="341" 
d="M4 -1q14 48 27 109.5t24.5 125.5t21.5 119t16 91q11 67 21.5 135.5t20.5 139.5l335 17l-29 -123h-157l-31 -178q16 1 30.5 1h28.5h47h21t16 1q-1 -14 -3 -27.5t-4 -27.5l-9 -54q-21 0 -60.5 1.5t-83.5 2.5l-46 -295q-17 -3 -33.5 -6t-33.5 -7q-28 -5 -61 -12t-58 -13z
" />
    <glyph glyph-name="g" unicode="g" horiz-adv-x="499" 
d="M223 -24q-37 0 -70.5 16t-57.5 49q-25 32 -39 81t-14 115q0 129 37 225t94 160q56 64 120.5 95t120.5 31q54 0 88 -23.5t50 -62.5t16 -87l-137 -26q-9 40 -24 57t-34 17q-22 0 -45.5 -24t-46 -64.5t-40.5 -90.5t-29.5 -103t-13.5 -100q0 -62 18.5 -88.5t47.5 -26.5
q28 0 55.5 18t46 48.5t19.5 68.5l-107 -16l19 99l92 12q38 5 80.5 12t74.5 13q-7 -102 -39.5 -178.5t-80.5 -126.5t-100.5 -75t-100.5 -25z" />
    <glyph glyph-name="gbreve" unicode="&#x11f;" horiz-adv-x="499" 
d="M223 -24q-37 0 -70.5 16t-57.5 49q-25 32 -39 81t-14 115q0 129 37 225t94 160q56 64 120.5 95t120.5 31q54 0 88 -23.5t50 -62.5t16 -87l-137 -26q-9 40 -24 57t-34 17q-22 0 -45.5 -24t-46 -64.5t-40.5 -90.5t-29.5 -103t-13.5 -100q0 -62 18.5 -88.5t47.5 -26.5
q28 0 55.5 18t46 48.5t19.5 68.5l-107 -16l19 99l92 12q38 5 80.5 12t74.5 13q-7 -102 -39.5 -178.5t-80.5 -126.5t-100.5 -75t-100.5 -25zM413 770q-36 0 -65 26.5t-44 67t-13 82.5l22 20q5 5 11 10l12 10q5 5 11 10t13 10q-1 -24 6.5 -49t21.5 -42t33 -17q33 0 49 15
q17 14 29.5 38t32.5 65q13 -11 23 -19.5t18 -16.5l16 -16q-9 -45 -33.5 -90t-60.5 -74.5t-82 -29.5z" />
    <glyph glyph-name="gcaron" unicode="&#x1e7;" horiz-adv-x="499" 
d="M223 -24q-37 0 -70.5 16t-57.5 49q-25 32 -39 81t-14 115q0 129 37 225t94 160q56 64 120.5 95t120.5 31q54 0 88 -23.5t50 -62.5t16 -87l-137 -26q-9 40 -24 57t-34 17q-22 0 -45.5 -24t-46 -64.5t-40.5 -90.5t-29.5 -103t-13.5 -100q0 -62 18.5 -88.5t47.5 -26.5
q28 0 55.5 18t46 48.5t19.5 68.5l-107 -16l19 99l92 12q38 5 80.5 12t74.5 13q-7 -102 -39.5 -178.5t-80.5 -126.5t-100.5 -75t-100.5 -25zM410 756q-13 1 -24 1.5t-18 0.5h-16q-4 -1 -10 -1q-4 0 -4 1q-4 13 -9.5 28.5t-10.5 32.5q-6 17 -12 33t-11 32l-12 36t-13 37l22 21
q5 5 11 10l12 10l24 20l67 -115q17 19 39.5 46t41.5 50t24 29q13 -11 23 -20t18 -17l16 -15q-13 -22 -26.5 -42.5t-27.5 -40.5q-23 -34 -51 -72t-53 -65z" />
    <glyph glyph-name="gcircumflex" unicode="&#x11d;" horiz-adv-x="499" 
d="M223 -24q-37 0 -70.5 16t-57.5 49q-25 32 -39 81t-14 115q0 129 37 225t94 160q56 64 120.5 95t120.5 31q54 0 88 -23.5t50 -62.5t16 -87l-137 -26q-9 40 -24 57t-34 17q-22 0 -45.5 -24t-46 -64.5t-40.5 -90.5t-29.5 -103t-13.5 -100q0 -62 18.5 -88.5t47.5 -26.5
q28 0 55.5 18t46 48.5t19.5 68.5l-107 -16l19 99l92 12q38 5 80.5 12t74.5 13q-7 -102 -39.5 -178.5t-80.5 -126.5t-100.5 -75t-100.5 -25zM324 741q-13 11 -23 20.5t-16 17.5q-4 5 -8 9t-7 8q14 20 28.5 40.5t29.5 39.5q25 33 54.5 69t55.5 62q20 -3 33.5 -4.5t21.5 -0.5
q15 1 17 -1q4 -13 8.5 -29t9.5 -33l18 -66q5 -19 11 -37t11 -37l-24 -20q-5 -4 -10.5 -8.5t-12.5 -9.5l-25 -19l-61 118q-20 -18 -42 -41.5t-40 -44.5t-29 -33z" />
    <glyph glyph-name="uni0123" unicode="&#x123;" horiz-adv-x="499" 
d="M223 -24q-37 0 -70.5 16t-57.5 49q-25 32 -39 81t-14 115q0 129 37 225t94 160q56 64 120.5 95t120.5 31q54 0 88 -23.5t50 -62.5t16 -87l-137 -26q-9 40 -24 57t-34 17q-22 0 -45.5 -24t-46 -64.5t-40.5 -90.5t-29.5 -103t-13.5 -100q0 -62 18.5 -88.5t47.5 -26.5
q28 0 55.5 18t46 48.5t19.5 68.5l-107 -16l19 99l92 12q38 5 80.5 12t74.5 13q-7 -102 -39.5 -178.5t-80.5 -126.5t-100.5 -75t-100.5 -25zM88 -356q10 51 22 106t22 104t14 81h26q8 -1 15 -1h11q30 0 47.5 0.5l35 1t46.5 1.5q-14 -67 -36.5 -143t-45.5 -150h-157z" />
    <glyph glyph-name="gdotaccent" unicode="&#x121;" horiz-adv-x="499" 
d="M223 -24q-37 0 -70.5 16t-57.5 49q-25 32 -39 81t-14 115q0 129 37 225t94 160q56 64 120.5 95t120.5 31q54 0 88 -23.5t50 -62.5t16 -87l-137 -26q-9 40 -24 57t-34 17q-22 0 -45.5 -24t-46 -64.5t-40.5 -90.5t-29.5 -103t-13.5 -100q0 -62 18.5 -88.5t47.5 -26.5
q28 0 55.5 18t46 48.5t19.5 68.5l-107 -16l19 99l92 12q38 5 80.5 12t74.5 13q-7 -102 -39.5 -178.5t-80.5 -126.5t-100.5 -75t-100.5 -25zM409 768q-40 0 -60 26t-20 60q0 32 22 60.5t68 28.5q49 0 72.5 -25t23.5 -57q0 -35 -27.5 -64t-78.5 -29z" />
    <glyph glyph-name="h" unicode="h" horiz-adv-x="441" 
d="M8 -2q29 140 54 273q14 81 28.5 164t26.5 159t18 136q27 -1 44.5 -2.5t33 -2.5t35 -1.5t49.5 -0.5q-17 -71 -33.5 -142t-30.5 -143l99 11q7 35 13.5 69.5t11.5 68.5q5 33 12.5 67.5t16.5 69.5q36 6 73 9.5t62 5l25 1.5q-13 -40 -26 -94t-25 -114t-23 -119.5t-20 -110.5
q-11 -64 -21 -128.5t-20 -131.5l-156 -18q7 30 12.5 59.5t10.5 57.5q10 48 20.5 100t16.5 89l-97 -9q-4 -19 -7.5 -41t-8.5 -47t-9.5 -48.5t-8.5 -46.5q-5 -27 -11 -54t-11 -54z" />
    <glyph glyph-name="hbar" unicode="&#x127;" horiz-adv-x="586" 
d="M8 -2q29 140 54 273q10 56 20 113.5t19 113.5l-81 -9l20 109l78 9q6 33 10 64.5t7 58.5q27 -1 44.5 -2.5t33 -2.5t35 -1.5t49.5 -0.5l-12 -50t-12 -49l92 10q9 42 21 90q36 6 73 9.5t62 5l25 1.5q-6 -19 -12 -41.5t-12 -47.5l56 6l-15 -110l-66 -7q-13 -61 -24.5 -123
t-20.5 -115q-11 -64 -21 -128.5t-20 -131.5l-156 -18q7 30 12.5 59.5t10.5 57.5q10 48 20.5 100t16.5 89l-97 -9q-4 -19 -7.5 -41t-8.5 -47t-9.5 -48.5t-8.5 -46.5q-5 -27 -11 -54t-11 -54zM332 449q4 19 7.5 37.5t6.5 37.5l-97 -11q-9 -39 -16 -75z" />
    <glyph glyph-name="hcircumflex" unicode="&#x125;" horiz-adv-x="441" 
d="M8 -2q29 140 54 273q14 81 28.5 164t26.5 159t18 136q27 -1 44.5 -2.5t33 -2.5t35 -1.5t49.5 -0.5q-17 -71 -33.5 -142t-30.5 -143l99 11q7 35 13.5 69.5t11.5 68.5q5 33 12.5 67.5t16.5 69.5q36 6 73 9.5t62 5l25 1.5q-13 -40 -26 -94t-25 -114t-23 -119.5t-20 -110.5
q-11 -64 -21 -128.5t-20 -131.5l-156 -18q7 30 12.5 59.5t10.5 57.5q10 48 20.5 100t16.5 89l-97 -9q-4 -19 -7.5 -41t-8.5 -47t-9.5 -48.5t-8.5 -46.5q-5 -27 -11 -54t-11 -54zM289 750q-13 11 -23 20.5t-16 17.5q-4 5 -8 9t-7 8q14 20 28.5 40.5t29.5 39.5q25 33 54.5 69
t55.5 62q20 -3 33.5 -4.5t21.5 -0.5q15 1 17 -1q4 -13 8.5 -29t9.5 -33l18 -66q5 -19 11 -37t11 -37l-24 -20q-5 -4 -10.5 -8.5t-12.5 -9.5l-25 -19l-61 118q-20 -18 -42 -41.5t-40 -44.5t-29 -33z" />
    <glyph glyph-name="i" unicode="i" horiz-adv-x="202" 
d="M5 1q14 58 28 131.5t28 152.5t26 152q11 64 21.5 130t20.5 133l156 25l-45 -263q-15 -93 -26.5 -167t-22 -140t-21.5 -135q-19 0 -46 -2.5t-54 -6t-45.5 -6.5t-19.5 -4z" />
    <glyph glyph-name="dotlessi" unicode="&#x131;" horiz-adv-x="202" 
d="M5 1q14 58 28 131.5t28 152.5t26 152q11 64 21.5 130t20.5 133l156 25l-45 -263q-15 -93 -26.5 -167t-22 -140t-21.5 -135q-19 0 -46 -2.5t-54 -6t-45.5 -6.5t-19.5 -4z" />
    <glyph glyph-name="iacute" unicode="&#xed;" horiz-adv-x="202" 
d="M5 1q14 58 28 131.5t28 152.5t26 152q11 64 21.5 130t20.5 133l156 25l-45 -263q-15 -93 -26.5 -167t-22 -140t-21.5 -135q-19 0 -46 -2.5t-54 -6t-45.5 -6.5t-19.5 -4zM100 736q-1 5 -1 10.5v9.5v18v16.5t1 16.5v34q34 35 66 65.5t62 57.5t58 55t54 56q5 -68 6 -125
q0 -29 2 -58.5t6 -60.5q-29 -12 -61 -24t-66 -24q-34 -13 -66 -24.5t-61 -22.5z" />
    <glyph glyph-name="ibreve" unicode="&#x12d;" horiz-adv-x="202" 
d="M5 1q14 58 28 131.5t28 152.5t26 152q11 64 21.5 130t20.5 133l156 25l-45 -263q-15 -93 -26.5 -167t-22 -140t-21.5 -135q-19 0 -46 -2.5t-54 -6t-45.5 -6.5t-19.5 -4zM221 770q-36 0 -65 26.5t-44 67t-13 82.5l22 20q5 5 11 10l12 10q5 5 11 10t13 10q-1 -24 6.5 -49
t21.5 -42t33 -17q33 0 49 15q17 14 29.5 38t32.5 65q13 -11 23 -19.5t18 -16.5l16 -16q-9 -45 -33.5 -90t-60.5 -74.5t-82 -29.5z" />
    <glyph glyph-name="icircumflex" unicode="&#xee;" horiz-adv-x="202" 
d="M5 1q14 58 28 131.5t28 152.5t26 152q11 64 21.5 130t20.5 133l156 25l-45 -263q-15 -93 -26.5 -167t-22 -140t-21.5 -135q-19 0 -46 -2.5t-54 -6t-45.5 -6.5t-19.5 -4zM132 741q-13 11 -23 20.5t-16 17.5q-4 5 -8 9t-7 8q14 20 28.5 40.5t29.5 39.5q25 33 54.5 69
t55.5 62q20 -3 33.5 -4.5t21.5 -0.5q15 1 17 -1q4 -13 8.5 -29t9.5 -33l18 -66q5 -19 11 -37t11 -37l-24 -20q-5 -4 -10.5 -8.5t-12.5 -9.5l-25 -19l-61 118q-20 -18 -42 -41.5t-40 -44.5t-29 -33z" />
    <glyph glyph-name="uni0209" unicode="&#x209;" horiz-adv-x="202" 
d="M5 1q14 58 28 131.5t28 152.5t26 152q11 64 21.5 130t20.5 133l156 25l-45 -263q-15 -93 -26.5 -167t-22 -140t-21.5 -135q-19 0 -46 -2.5t-54 -6t-45.5 -6.5t-19.5 -4zM192 732l-50 12t-48 12q-41 9 -84 20.5t-72 20.5q6 29 14 70.5t15 80.5l18 94q20 -21 39.5 -41.5
t38.5 -40.5q33 -35 70.5 -75t65.5 -72zM481 707l-50 12t-48 12q-41 9 -84 20.5t-72 20.5q6 29 14 70.5t15 80.5l18 94q20 -21 39.5 -41.5t38.5 -40.5q33 -35 70.5 -75t65.5 -72z" />
    <glyph glyph-name="idieresis" unicode="&#xef;" horiz-adv-x="202" 
d="M5 1q14 58 28 131.5t28 152.5t26 152q11 64 21.5 130t20.5 133l156 25l-45 -263q-15 -93 -26.5 -167t-22 -140t-21.5 -135q-19 0 -46 -2.5t-54 -6t-45.5 -6.5t-19.5 -4zM329 814q-40 0 -60 26.5t-20 59.5q0 35 23.5 62t67.5 27q48 0 72 -25t24 -56q0 -34 -27.5 -64
t-79.5 -30zM97 814q-40 0 -60 26.5t-20 59.5q0 34 22.5 61.5t67.5 27.5q49 0 72.5 -25t23.5 -56q0 -39 -29.5 -66.5t-76.5 -27.5z" />
    <glyph glyph-name="i.loclTRK" horiz-adv-x="202" 
d="M5 1q14 58 28 131.5t28 152.5t26 152q11 64 21.5 130t20.5 133l156 25l-45 -263q-15 -93 -26.5 -167t-22 -140t-21.5 -135q-19 0 -46 -2.5t-54 -6t-45.5 -6.5t-19.5 -4zM217 768q-40 0 -60 26t-20 60q0 32 22 60.5t68 28.5q49 0 72.5 -25t23.5 -57q0 -35 -27.5 -64
t-78.5 -29z" />
    <glyph glyph-name="uni1ECB" unicode="&#x1ecb;" horiz-adv-x="202" 
d="M5 1q14 58 28 131.5t28 152.5t26 152q11 64 21.5 130t20.5 133l156 25l-45 -263q-15 -93 -26.5 -167t-22 -140t-21.5 -135q-19 0 -46 -2.5t-54 -6t-45.5 -6.5t-19.5 -4zM87 -182q-40 0 -60 26.5t-20 59.5q0 35 22.5 62t67.5 27q49 0 72.5 -25t23.5 -56q0 -40 -30 -67
t-76 -27z" />
    <glyph glyph-name="igrave" unicode="&#xec;" horiz-adv-x="202" 
d="M5 1q14 58 28 131.5t28 152.5t26 152q11 64 21.5 130t20.5 133l156 25l-45 -263q-15 -93 -26.5 -167t-22 -140t-21.5 -135q-19 0 -46 -2.5t-54 -6t-45.5 -6.5t-19.5 -4zM297 741l-50 12t-48 12q-41 9 -84 20.5t-72 20.5q6 29 14 70.5t15 80.5l18 94q20 -21 39.5 -41.5
t38.5 -40.5q33 -35 70.5 -75t65.5 -72z" />
    <glyph glyph-name="uni1EC9" unicode="&#x1ec9;" horiz-adv-x="202" 
d="M5 1q14 58 28 131.5t28 152.5t26 152q11 64 21.5 130t20.5 133l156 25l-45 -263q-15 -93 -26.5 -167t-22 -140t-21.5 -135q-19 0 -46 -2.5t-54 -6t-45.5 -6.5t-19.5 -4zM179 729q0 27 10.5 44.5t23.5 30.5q12 12 22.5 21t10.5 16q0 2 -3 5.5t-8 3.5q-10 0 -24 -10
t-29 -22l-16 59q24 19 47 27.5t52 8.5q32 0 51.5 -14.5t19.5 -49.5q0 -22 -10 -37t-25 -26q-16 -11 -27.5 -22.5t-17.5 -30.5l-19 -2z" />
    <glyph glyph-name="uni020B" unicode="&#x20b;" horiz-adv-x="202" 
d="M5 1q14 58 28 131.5t28 152.5t26 152q11 64 21.5 130t20.5 133l156 25l-45 -263q-15 -93 -26.5 -167t-22 -140t-21.5 -135q-19 0 -46 -2.5t-54 -6t-45.5 -6.5t-19.5 -4zM253 977q37 0 65.5 -26.5t44 -66.5t12.5 -83l-22 -20q-5 -4 -11 -9t-11 -10q-6 -5 -12 -10.5
t-13 -10.5q1 25 -6.5 49.5t-21.5 41.5t-33 17q-31 0 -48 -14q-16 -15 -29.5 -39t-33.5 -65q-13 11 -23 19.5t-18 16.5l-16 16q10 46 34 90.5t60 74t82 29.5z" />
    <glyph glyph-name="imacron" unicode="&#x12b;" horiz-adv-x="202" 
d="M5 1q14 58 28 131.5t28 152.5t26 152q11 64 21.5 130t20.5 133l156 25l-45 -263q-15 -93 -26.5 -167t-22 -140t-21.5 -135q-19 0 -46 -2.5t-54 -6t-45.5 -6.5t-19.5 -4zM38 765q-5 17 -6 45t-1 54v40v9.5t1 8.5l374 32l16 -162l-151 -9q-50 -3 -88.5 -6t-73 -5.5
t-71.5 -6.5z" />
    <glyph glyph-name="iogonek" unicode="&#x12f;" horiz-adv-x="202" 
d="M5 1q14 58 28 131.5t28 152.5t26 152q11 64 21.5 130t20.5 133l156 25l-45 -263q-15 -93 -26.5 -167t-22 -140t-21.5 -135q-19 0 -46 -2.5t-54 -6t-45.5 -6.5t-19.5 -4zM217 768q-40 0 -60 26t-20 60q0 32 22 60.5t68 28.5q49 0 72.5 -25t23.5 -57q0 -35 -27.5 -64
t-78.5 -29zM98 -165q-58 0 -96.5 28t-38.5 69q0 39 40 78q2 0 17 3t43 6q-2 -9 -3 -16.5t-1 -13.5q0 -25 14.5 -41t35.5 -16q28 0 53 28l20 -88q-16 -19 -38.5 -28t-45.5 -9z" />
    <glyph glyph-name="itilde" unicode="&#x129;" horiz-adv-x="202" 
d="M5 1q14 58 28 131.5t28 152.5t26 152q11 64 21.5 130t20.5 133l156 25l-45 -263q-15 -93 -26.5 -167t-22 -140t-21.5 -135q-19 0 -46 -2.5t-54 -6t-45.5 -6.5t-19.5 -4zM108 767q-13 9 -31 23.5t-23 20.5l12.5 25.5t37.5 62.5q23 35 54.5 62t68.5 27q23 0 41.5 -13
t32.5 -30t23.5 -30t13.5 -13q20 0 38 17.5t35 39t30 33.5q6 -4 11.5 -8.5t10.5 -8.5t9.5 -7.5t8.5 -6.5t7.5 -6t6.5 -7q-21 -49 -48 -87q-20 -31 -54 -58.5t-72 -27.5q-24 0 -37 10.5t-22 23.5t-20 23.5t-32 10.5q-19 0 -37.5 -14t-35 -32t-29.5 -30z" />
    <glyph glyph-name="ij" unicode="&#x133;" horiz-adv-x="481" 
d="M5 1q14 58 28 131.5t28 152.5t26 152q11 64 21.5 130t20.5 133l156 25l-45 -263q-15 -93 -26.5 -167t-22 -140t-21.5 -135q-19 0 -46 -2.5t-54 -6t-45.5 -6.5t-19.5 -4zM307 -1q-28 0 -60.5 12t-71.5 41l69 154q5 -10 19.5 -17.5t31.5 -7.5q13 0 23 21t16.5 51t10.5 56.5
t5 37.5q10 49 19 97t17 97q8 48 18.5 96t21.5 96q45 4 88.5 12.5t87.5 20.5q-15 -51 -31 -115.5t-31 -133.5t-28.5 -134t-23.5 -117q-9 -42 -22 -88.5t-34 -87t-51.5 -66t-73.5 -25.5z" />
    <glyph glyph-name="j" unicode="j" horiz-adv-x="279" 
d="M105 -1q-28 0 -60.5 12t-71.5 41l69 154q5 -10 19.5 -17.5t31.5 -7.5q13 0 23 21t16.5 51t10.5 56.5t5 37.5q10 49 19 97t17 97q8 48 18.5 96t21.5 96q45 4 88.5 12.5t87.5 20.5q-15 -51 -31 -115.5t-31 -133.5t-28.5 -134t-23.5 -117q-9 -42 -22 -88.5t-34 -87
t-51.5 -66t-73.5 -25.5z" />
    <glyph glyph-name="uni0237" unicode="&#x237;" horiz-adv-x="279" 
d="M105 -1q-28 0 -60.5 12t-71.5 41l69 154q5 -10 19.5 -17.5t31.5 -7.5q13 0 23 21t16.5 51t10.5 56.5t5 37.5q10 49 19 97t17 97q8 48 18.5 96t21.5 96q45 4 88.5 12.5t87.5 20.5q-15 -51 -31 -115.5t-31 -133.5t-28.5 -134t-23.5 -117q-9 -42 -22 -88.5t-34 -87
t-51.5 -66t-73.5 -25.5z" />
    <glyph glyph-name="jcircumflex" unicode="&#x135;" horiz-adv-x="279" 
d="M105 -1q-28 0 -60.5 12t-71.5 41l69 154q5 -10 19.5 -17.5t31.5 -7.5q13 0 23 21t16.5 51t10.5 56.5t5 37.5q10 49 19 97t17 97q8 48 18.5 96t21.5 96q45 4 88.5 12.5t87.5 20.5q-15 -51 -31 -115.5t-31 -133.5t-28.5 -134t-23.5 -117q-9 -42 -22 -88.5t-34 -87
t-51.5 -66t-73.5 -25.5zM226 741q-13 11 -23 20.5t-16 17.5q-4 5 -8 9t-7 8q14 20 28.5 40.5t29.5 39.5q25 33 54.5 69t55.5 62q20 -3 33.5 -4.5t21.5 -0.5q15 1 17 -1q4 -13 8.5 -29t9.5 -33l18 -66q5 -19 11 -37t11 -37l-24 -20q-5 -4 -10.5 -8.5t-12.5 -9.5l-25 -19
l-61 118q-20 -18 -42 -41.5t-40 -44.5t-29 -33z" />
    <glyph glyph-name="k" unicode="k" horiz-adv-x="462" 
d="M7 -1q15 70 29 138t27 134q21 119 41 235.5t29 222.5l52 -3q14 -1 27.5 -2t26.5 -2q15 -1 30 -1.5t30 -0.5q-2 -8 -6.5 -32t-9 -48.5t-6.5 -33.5l-18 -99l6 1q29 45 67 104t71 113q50 4 100 9t100 13l-46 -62t-45 -62q-23 -32 -50 -70t-51.5 -74.5t-40.5 -62.5
q11 -50 24 -99t28 -96t30 -95t31 -97q-23 1 -47 1.5t-47 0.5q-29 0 -56 -0.5t-56 -1.5q-4 32 -9 66.5t-10 70.5q-5 35 -10 69.5t-10 66.5l-18 -21q-7 -29 -15 -74q-4 -22 -8.5 -43.5t-8.5 -41.5q-4 -24 -9 -48.5t-10 -50.5z" />
    <glyph glyph-name="uni0137" unicode="&#x137;" horiz-adv-x="462" 
d="M7 -1q15 70 29 138t27 134q21 119 41 235.5t29 222.5l52 -3q14 -1 27.5 -2t26.5 -2q15 -1 30 -1.5t30 -0.5q-2 -8 -6.5 -32t-9 -48.5t-6.5 -33.5l-18 -99l6 1q29 45 67 104t71 113q50 4 100 9t100 13l-46 -62t-45 -62q-23 -32 -50 -70t-51.5 -74.5t-40.5 -62.5
q11 -50 24 -99t28 -96t30 -95t31 -97q-23 1 -47 1.5t-47 0.5q-29 0 -56 -0.5t-56 -1.5q-4 32 -9 66.5t-10 70.5q-5 35 -10 69.5t-10 66.5l-18 -21q-7 -29 -15 -74q-4 -22 -8.5 -43.5t-8.5 -41.5q-4 -24 -9 -48.5t-10 -50.5zM69 -356q10 51 22 106t22 104t14 81h26
q8 -1 15 -1h11q30 0 47.5 0.5l35 1t46.5 1.5q-14 -67 -36.5 -143t-45.5 -150h-157z" />
    <glyph glyph-name="kgreenlandic" unicode="&#x138;" horiz-adv-x="462" 
d="M16 -3l53 310l49 346l166 -9l-37 -199h9l89 190l197 23l-181 -302l121 -326h-205l-46 208l-27 -24l-35 -187z" />
    <glyph glyph-name="l" unicode="l" horiz-adv-x="302" 
d="M12 -2q11 79 23.5 159t26 154.5t25.5 134.5q13 65 26 132t27 135l175 23l-52 -226q-14 -59 -28.5 -126.5t-26.5 -130.5t-19 -112q25 2 53.5 2.5t50.5 0.5q1 -23 4 -48.5t6.5 -44t3.5 -20.5h-7.5t-7.5 1h-16q-39 0 -86.5 -3.5t-94 -11t-83.5 -19.5z" />
    <glyph glyph-name="lacute" unicode="&#x13a;" horiz-adv-x="302" 
d="M12 -2q11 79 23.5 159t26 154.5t25.5 134.5q13 65 26 132t27 135l175 23l-52 -226q-14 -59 -28.5 -126.5t-26.5 -130.5t-19 -112q25 2 53.5 2.5t50.5 0.5q1 -23 4 -48.5t6.5 -44t3.5 -20.5h-7.5t-7.5 1h-16q-39 0 -86.5 -3.5t-94 -11t-83.5 -19.5zM175 750q-1 5 -1 10.5
v9.5v18v16.5t1 16.5v34q34 35 66 65.5t62 57.5t58 55t54 56q5 -68 6 -125q0 -29 2 -58.5t6 -60.5q-29 -12 -61 -24t-66 -24q-34 -13 -66 -24.5t-61 -22.5z" />
    <glyph glyph-name="lcaron" unicode="&#x13e;" horiz-adv-x="471" 
d="M12 -2q11 79 23.5 159t26 154.5t25.5 134.5q13 65 26 132t27 135l175 23l-52 -226q-14 -59 -28.5 -126.5t-26.5 -130.5t-19 -112q25 2 53.5 2.5t50.5 0.5q1 -23 4 -48.5t6.5 -44t3.5 -20.5h-7.5t-7.5 1h-16q-39 0 -86.5 -3.5t-94 -11t-83.5 -19.5zM342 481
q15 76 28.5 144.5t19.5 116.5h26q8 -1 15 -1h11q15 0 26 0.5t27.5 1t45.5 1.5q-14 -67 -31.5 -128t-40.5 -135h-127z" />
    <glyph glyph-name="uni013C" unicode="&#x13c;" horiz-adv-x="302" 
d="M12 -2q11 79 23.5 159t26 154.5t25.5 134.5q13 65 26 132t27 135l175 23l-52 -226q-14 -59 -28.5 -126.5t-26.5 -130.5t-19 -112q25 2 53.5 2.5t50.5 0.5q1 -23 4 -48.5t6.5 -44t3.5 -20.5h-7.5t-7.5 1h-16q-39 0 -86.5 -3.5t-94 -11t-83.5 -19.5zM-11 -356q10 51 22 106
t22 104t14 81h26q8 -1 15 -1h11q30 0 47.5 0.5l35 1t46.5 1.5q-14 -67 -36.5 -143t-45.5 -150h-157z" />
    <glyph glyph-name="ldot" unicode="&#x140;" horiz-adv-x="522" 
d="M12 -2q11 79 23.5 159t26 154.5t25.5 134.5q13 65 26 132t27 135l175 23l-52 -226q-14 -59 -28.5 -126.5t-26.5 -130.5t-19 -112q25 2 53.5 2.5t50.5 0.5q1 -23 4 -48.5t6.5 -44t3.5 -20.5h-7.5t-7.5 1h-16q-39 0 -86.5 -3.5t-94 -11t-83.5 -19.5zM394 281
q-30 0 -49.5 14.5t-29 36t-9.5 43.5q0 40 26.5 69.5t73.5 29.5q58 0 87 -27.5t29 -62.5q0 -40 -33 -71.5t-95 -31.5z" />
    <glyph glyph-name="uni01C9" unicode="&#x1c9;" horiz-adv-x="581" 
d="M12 -2q11 79 23.5 159t26 154.5t25.5 134.5q13 65 26 132t27 135l175 23l-52 -226q-14 -59 -28.5 -126.5t-26.5 -130.5t-19 -112q25 2 53.5 2.5t50.5 0.5q1 -23 4 -48.5t6.5 -44t3.5 -20.5h-7.5t-7.5 1h-16q-39 0 -86.5 -3.5t-94 -11t-83.5 -19.5zM407 -1q-28 0 -60.5 12
t-71.5 41l69 154q5 -10 19.5 -17.5t31.5 -7.5q13 0 23 21t16.5 51t10.5 56.5t5 37.5q10 49 19 97t17 97q8 48 18.5 96t21.5 96q45 4 88.5 12.5t87.5 20.5q-15 -51 -31 -115.5t-31 -133.5t-28.5 -134t-23.5 -117q-9 -42 -22 -88.5t-34 -87t-51.5 -66t-73.5 -25.5z" />
    <glyph glyph-name="lslash" unicode="&#x142;" horiz-adv-x="309" 
d="M18 -2q8 69 22.5 157t30.5 178q-7 -4 -16 -6l-13 -5q-4 -1 -7 -2.5l-5 -2.5l11 124q4 1 8.5 2.5t8.5 2.5l37 12q5 27 10 52t9 48t8 43.5t8 37.5q4 20 8 38.5t8 35.5l175 23q-7 -28 -15 -63q-8 -29 -17 -69t-19 -85q17 5 33 12l31 11l16 6t15 7l3 -120l-126 -42
q-14 -71 -27 -137t-20 -115q25 2 53 2.5t51 0.5q1 -23 4 -48.5t6.5 -44t3.5 -20.5h-7.5t-7.5 1h-16q-39 0 -86.5 -3.5t-94 -11t-83.5 -19.5z" />
    <glyph glyph-name="m" unicode="m" horiz-adv-x="619" 
d="M-30 6q44 134 84 261q17 52 35 111t36 118.5t34 114.5t27 98q55 0 104 6q25 3 51.5 6t54.5 5l-6 -49q-2 -14 -4 -28.5t-4 -29.5t-5 -30.5t-5 -31.5q-4 -31 -12 -86.5t-19 -120.5h13q29 76 48 126.5t31 82.5q17 47 37 95t33 74q24 2 57.5 6.5t68 10.5t59.5 10
q-14 -84 -25.5 -169.5t-20 -163t-14.5 -139.5t-11 -122.5t-10 -119.5l-174 -31q0 2 3 45t10 107t14 121.5t14 94.5h-9q-25 -76 -60.5 -166t-69.5 -199q-35 -1 -60 -2.5t-58 -3.5l32 371h-15q-1 -11 -9 -42.5t-19 -72t-23 -80.5q-45 -157 -48 -166z" />
    <glyph glyph-name="n" unicode="n" horiz-adv-x="452" 
d="M5 -5q30 144 57 279q22 127 43 244t30 215q7 -1 12.5 -1h9.5h21q26 0 58 1.5t59 2.5q7 -35 13.5 -69t11.5 -66q5 -28 11 -57.5t12 -59.5q5 -30 10.5 -55.5t9.5 -46.5q12 59 22.5 116t20.5 103l29 134l122 15q-17 -76 -32 -149t-28 -141q-25 -122 -44 -230t-29 -188
q11 0 -3.5 -2.5t-42.5 -7t-60 -11.5t-57 -17q-3 40 -6 78t-7 74q-6 64 -14 127t-16 100q-7 -44 -17 -100.5t-22 -113.5l-28 -140z" />
    <glyph glyph-name="nacute" unicode="&#x144;" horiz-adv-x="452" 
d="M5 -5q30 144 57 279q22 127 43 244t30 215q7 -1 12.5 -1h9.5h21q26 0 58 1.5t59 2.5q7 -35 13.5 -69t11.5 -66q5 -28 11 -57.5t12 -59.5q5 -30 10.5 -55.5t9.5 -46.5q12 59 22.5 116t20.5 103l29 134l122 15q-17 -76 -32 -149t-28 -141q-25 -122 -44 -230t-29 -188
q11 0 -3.5 -2.5t-42.5 -7t-60 -11.5t-57 -17q-3 40 -6 78t-7 74q-6 64 -14 127t-16 100q-7 -44 -17 -100.5t-22 -113.5l-28 -140zM243 736q-1 5 -1 10.5v9.5v18v16.5t1 16.5v34q34 35 66 65.5t62 57.5t58 55t54 56q5 -68 6 -125q0 -29 2 -58.5t6 -60.5q-29 -12 -61 -24
t-66 -24q-34 -13 -66 -24.5t-61 -22.5z" />
    <glyph glyph-name="napostrophe" unicode="&#x149;" horiz-adv-x="631" 
d="M49 422l27 108q6 23 12 49t13 54l25 106q11 -1 30 -2t34 -1t13 0q25 0 52.5 4.5t55.5 9.5l-98 -312zM184 -5q30 144 57 279q22 127 43 244t30 215q7 -1 12.5 -1h9.5h21q26 0 58 1.5t59 2.5q7 -35 13.5 -69t11.5 -66q5 -28 11 -57.5t12 -59.5q5 -30 10.5 -55.5t9.5 -46.5
q12 59 22.5 116t20.5 103l29 134l122 15q-17 -76 -32 -149t-28 -141q-25 -122 -44 -230t-29 -188q11 0 -3.5 -2.5t-42.5 -7t-60 -11.5t-57 -17q-3 40 -6 78t-7 74q-6 64 -14 127t-16 100q-7 -44 -17 -100.5t-22 -113.5l-28 -140z" />
    <glyph glyph-name="ncaron" unicode="&#x148;" horiz-adv-x="452" 
d="M5 -5q30 144 57 279q22 127 43 244t30 215q7 -1 12.5 -1h9.5h21q26 0 58 1.5t59 2.5q7 -35 13.5 -69t11.5 -66q5 -28 11 -57.5t12 -59.5q5 -30 10.5 -55.5t9.5 -46.5q12 59 22.5 116t20.5 103l29 134l122 15q-17 -76 -32 -149t-28 -141q-25 -122 -44 -230t-29 -188
q11 0 -3.5 -2.5t-42.5 -7t-60 -11.5t-57 -17q-3 40 -6 78t-7 74q-6 64 -14 127t-16 100q-7 -44 -17 -100.5t-22 -113.5l-28 -140zM361 756q-13 1 -24 1.5t-18 0.5h-16q-4 -1 -10 -1q-4 0 -4 1q-4 13 -9.5 28.5t-10.5 32.5q-6 17 -12 33t-11 32l-12 36t-13 37l22 21
q5 5 11 10l12 10l24 20l67 -115q17 19 39.5 46t41.5 50t24 29q13 -11 23 -20t18 -17l16 -15q-13 -22 -26.5 -42.5t-27.5 -40.5q-23 -34 -51 -72t-53 -65z" />
    <glyph glyph-name="uni0146" unicode="&#x146;" horiz-adv-x="452" 
d="M5 -5q30 144 57 279q22 127 43 244t30 215q7 -1 12.5 -1h9.5h21q26 0 58 1.5t59 2.5q7 -35 13.5 -69t11.5 -66q5 -28 11 -57.5t12 -59.5q5 -30 10.5 -55.5t9.5 -46.5q12 59 22.5 116t20.5 103l29 134l122 15q-17 -76 -32 -149t-28 -141q-25 -122 -44 -230t-29 -188
q11 0 -3.5 -2.5t-42.5 -7t-60 -11.5t-57 -17q-3 40 -6 78t-7 74q-6 64 -14 127t-16 100q-7 -44 -17 -100.5t-22 -113.5l-28 -140zM65 -356q10 51 22 106t22 104t14 81h26q8 -1 15 -1h11q30 0 47.5 0.5l35 1t46.5 1.5q-14 -67 -36.5 -143t-45.5 -150h-157z" />
    <glyph glyph-name="uni0272" unicode="&#x272;" horiz-adv-x="465" 
d="M180 177l-28 -148q-3 -22 -13.5 -57t-31 -70t-51 -59t-74.5 -24q-34 0 -67 15.5t-65 37.5l57 128q14 -16 27.5 -26t27.5 -10q13 0 27.5 9t18.5 31l52 266q5 29 10.5 58t10.5 60q6 31 11.5 61t10.5 60t9.5 58.5t8.5 55.5q5 28 8.5 53.5t5.5 48.5q15 1 30.5 2t29.5 2l53 3
q14 1 26 2t22 2q7 -38 13 -75t10 -72l10 -63q3 -16 6 -31.5t5 -30.5q2 -16 5 -30t5 -28l10 -48l9 48q2 14 5 28t6 30q3 15 6 31t7 31l12 63l31 146l122 15q-17 -76 -31.5 -146.5t-28.5 -137.5l-23 -117l-22 -115q-5 -27 -9.5 -52.5t-7.5 -48.5q-4 -22 -6.5 -42l-4.5 -36
l-163 -38l-22 217l-8 64q-1 15 -2.5 29t-3.5 27l-7 45l-8 -45q-2 -12 -5 -26t-5 -29t-5 -30t-6 -31q-1 -15 -4 -30.5t-6 -30.5z" />
    <glyph glyph-name="uni01CC" unicode="&#x1cc;" horiz-adv-x="731" 
d="M5 -5q30 144 57 279q22 127 43 244t30 215q7 -1 12.5 -1h9.5h21q26 0 58 1.5t59 2.5q7 -35 13.5 -69t11.5 -66q5 -28 11 -57.5t12 -59.5q5 -30 10.5 -55.5t9.5 -46.5q12 59 22.5 116t20.5 103l29 134l122 15q-17 -76 -32 -149t-28 -141q-25 -122 -44 -230t-29 -188
q11 0 -3.5 -2.5t-42.5 -7t-60 -11.5t-57 -17q-3 40 -6 78t-7 74q-6 64 -14 127t-16 100q-7 -44 -17 -100.5t-22 -113.5l-28 -140zM557 -1q-28 0 -60.5 12t-71.5 41l69 154q5 -10 19.5 -17.5t31.5 -7.5q13 0 23 21t16.5 51t10.5 56.5t5 37.5q10 49 19 97t17 97q8 48 18.5 96
t21.5 96q45 4 88.5 12.5t87.5 20.5q-15 -51 -31 -115.5t-31 -133.5t-28.5 -134t-23.5 -117q-9 -42 -22 -88.5t-34 -87t-51.5 -66t-73.5 -25.5z" />
    <glyph glyph-name="ntilde" unicode="&#xf1;" horiz-adv-x="452" 
d="M5 -5q30 144 57 279q22 127 43 244t30 215q7 -1 12.5 -1h9.5h21q26 0 58 1.5t59 2.5q7 -35 13.5 -69t11.5 -66q5 -28 11 -57.5t12 -59.5q5 -30 10.5 -55.5t9.5 -46.5q12 59 22.5 116t20.5 103l29 134l122 15q-17 -76 -32 -149t-28 -141q-25 -122 -44 -230t-29 -188
q11 0 -3.5 -2.5t-42.5 -7t-60 -11.5t-57 -17q-3 40 -6 78t-7 74q-6 64 -14 127t-16 100q-7 -44 -17 -100.5t-22 -113.5l-28 -140zM251 767q-13 9 -31 23.5t-23 20.5l12.5 25.5t37.5 62.5q23 35 54.5 62t68.5 27q23 0 41.5 -13t32.5 -30t23.5 -30t13.5 -13q20 0 38 17.5
t35 39t30 33.5q6 -4 11.5 -8.5t10.5 -8.5t9.5 -7.5t8.5 -6.5t7.5 -6t6.5 -7q-21 -49 -48 -87q-20 -31 -54 -58.5t-72 -27.5q-24 0 -37 10.5t-22 23.5t-20 23.5t-32 10.5q-19 0 -37.5 -14t-35 -32t-29.5 -30z" />
    <glyph glyph-name="eng" unicode="&#x14b;" horiz-adv-x="453" 
d="M425 67q-5 -35 -17.5 -78t-33.5 -82t-52 -64.5t-74 -25.5q-35 0 -68 15.5t-65 37.5l58 128q14 -15 27.5 -25.5t27.5 -10.5q13 0 24.5 12t9.5 28l-22 232l-8 64q-1 15 -2.5 29t-3.5 27l-7 45l-8 -45q-2 -12 -5 -26t-5 -29t-5 -30t-6 -31q-1 -15 -4 -30.5t-6 -30.5
l-28 -148l-146 -34q14 71 27.5 139.5t26.5 135.5q5 29 10.5 58t10.5 60q6 31 11.5 61t10.5 60t9.5 58.5t8.5 55.5q5 28 8.5 53.5t5.5 48.5q15 1 30.5 2t29.5 2l53 3q14 1 26 2t22 2q7 -38 13 -75t10 -72l10 -63q3 -16 6 -31.5t5 -30.5q2 -16 5 -30t5 -28l10 -48l9 48
q2 14 5 28t6 30q3 15 6 31t7 31l12 63l31 146l122 15q-17 -76 -31.5 -146.5t-28.5 -137.5l-23 -117l-22 -115q-5 -27 -9.5 -52.5t-7.5 -48.5q-4 -22 -6.5 -35.5t-4.5 -30.5z" />
    <glyph glyph-name="o" unicode="o" 
d="M181 -4q-66 0 -108 51t-42 154q0 57 14 120t39 124t58 113q53 84 122 137t145 53q60 0 92.5 -30.5t45.5 -78t13 -98.5q0 -119 -36.5 -221.5t-94.5 -173.5q-58 -73 -123.5 -111.5t-124.5 -38.5zM235 161q45 0 79.5 30t58.5 76.5t36 97.5t12 92q0 16 -3 34.5t-13 32.5
t-31 14q-46 0 -83 -33.5t-62 -84.5q-25 -52 -37 -102t-12 -91q0 -21 15 -43.5t40 -22.5z" />
    <glyph glyph-name="oacute" unicode="&#xf3;" 
d="M181 -4q-66 0 -108 51t-42 154q0 57 14 120t39 124t58 113q53 84 122 137t145 53q60 0 92.5 -30.5t45.5 -78t13 -98.5q0 -119 -36.5 -221.5t-94.5 -173.5q-58 -73 -123.5 -111.5t-124.5 -38.5zM235 161q45 0 79.5 30t58.5 76.5t36 97.5t12 92q0 16 -3 34.5t-13 32.5
t-31 14q-46 0 -83 -33.5t-62 -84.5q-25 -52 -37 -102t-12 -91q0 -21 15 -43.5t40 -22.5zM273 765q-1 5 -1 10.5v9.5v18v16.5t1 16.5v34q34 35 66 65.5t62 57.5t58 55t54 56q5 -68 6 -125q0 -29 2 -58.5t6 -60.5q-29 -12 -61 -24t-66 -24q-34 -13 -66 -24.5t-61 -22.5z" />
    <glyph glyph-name="obreve" unicode="&#x14f;" 
d="M181 -4q-66 0 -108 51t-42 154q0 57 14 120t39 124t58 113q53 84 122 137t145 53q60 0 92.5 -30.5t45.5 -78t13 -98.5q0 -119 -36.5 -221.5t-94.5 -173.5q-58 -73 -123.5 -111.5t-124.5 -38.5zM235 161q45 0 79.5 30t58.5 76.5t36 97.5t12 92q0 16 -3 34.5t-13 32.5
t-31 14q-46 0 -83 -33.5t-62 -84.5q-25 -52 -37 -102t-12 -91q0 -21 15 -43.5t40 -22.5zM394 799q-36 0 -65 26.5t-44 67t-13 82.5l22 20q5 5 11 10l12 10q5 5 11 10t13 10q-1 -24 6.5 -49t21.5 -42t33 -17q33 0 49 15q17 14 29.5 38t32.5 65q13 -11 23 -19.5t18 -16.5
l16 -16q-9 -45 -33.5 -90t-60.5 -74.5t-82 -29.5z" />
    <glyph glyph-name="ocircumflex" unicode="&#xf4;" 
d="M181 -4q-66 0 -108 51t-42 154q0 57 14 120t39 124t58 113q53 84 122 137t145 53q60 0 92.5 -30.5t45.5 -78t13 -98.5q0 -119 -36.5 -221.5t-94.5 -173.5q-58 -73 -123.5 -111.5t-124.5 -38.5zM235 161q45 0 79.5 30t58.5 76.5t36 97.5t12 92q0 16 -3 34.5t-13 32.5
t-31 14q-46 0 -83 -33.5t-62 -84.5q-25 -52 -37 -102t-12 -91q0 -21 15 -43.5t40 -22.5zM305 770q-13 11 -23 20.5t-16 17.5q-4 5 -8 9t-7 8q14 20 28.5 40.5t29.5 39.5q25 33 54.5 69t55.5 62q20 -3 33.5 -4.5t21.5 -0.5q15 1 17 -1q4 -13 8.5 -29t9.5 -33l18 -66
q5 -19 11 -37t11 -37l-24 -20q-5 -4 -10.5 -8.5t-12.5 -9.5l-25 -19l-61 118q-20 -18 -42 -41.5t-40 -44.5t-29 -33z" />
    <glyph glyph-name="uni1ED1" unicode="&#x1ed1;" 
d="M181 -4q-66 0 -108 51t-42 154q0 57 14 120t39 124t58 113q53 84 122 137t145 53q60 0 92.5 -30.5t45.5 -78t13 -98.5q0 -119 -36.5 -221.5t-94.5 -173.5q-58 -73 -123.5 -111.5t-124.5 -38.5zM235 161q45 0 79.5 30t58.5 76.5t36 97.5t12 92q0 16 -3 34.5t-13 32.5
t-31 14q-46 0 -83 -33.5t-62 -84.5q-25 -52 -37 -102t-12 -91q0 -21 15 -43.5t40 -22.5zM305 770q-13 11 -23 20.5t-16 17.5q-4 5 -8 9t-7 8q14 20 28.5 40.5t29.5 39.5q25 33 54.5 69t55.5 62q20 -3 33.5 -4.5t21.5 -0.5q15 1 17 -1q4 -13 8.5 -29t9.5 -33l18 -66
q5 -19 11 -37t11 -37l-24 -20q-5 -4 -10.5 -8.5t-12.5 -9.5l-25 -19l-61 118q-20 -18 -42 -41.5t-40 -44.5t-29 -33zM347 1051q-1 5 -1 10.5v9.5v18v16.5t1 16.5v34q34 35 66 65.5t62 57.5t58 55t54 56q5 -68 6 -125q0 -29 2 -58.5t6 -60.5q-29 -12 -61 -24t-66 -24
q-34 -13 -66 -24.5t-61 -22.5z" />
    <glyph glyph-name="uni1ED9" unicode="&#x1ed9;" 
d="M181 -4q-66 0 -108 51t-42 154q0 57 14 120t39 124t58 113q53 84 122 137t145 53q60 0 92.5 -30.5t45.5 -78t13 -98.5q0 -119 -36.5 -221.5t-94.5 -173.5q-58 -73 -123.5 -111.5t-124.5 -38.5zM235 161q45 0 79.5 30t58.5 76.5t36 97.5t12 92q0 16 -3 34.5t-13 32.5
t-31 14q-46 0 -83 -33.5t-62 -84.5q-25 -52 -37 -102t-12 -91q0 -21 15 -43.5t40 -22.5zM134 -186q-40 0 -60 26.5t-20 59.5q0 35 22.5 62t67.5 27q49 0 72.5 -25t23.5 -56q0 -40 -30 -67t-76 -27zM305 770q-13 11 -23 20.5t-16 17.5q-4 5 -8 9t-7 8q14 20 28.5 40.5
t29.5 39.5q25 33 54.5 69t55.5 62q20 -3 33.5 -4.5t21.5 -0.5q15 1 17 -1q4 -13 8.5 -29t9.5 -33l18 -66q5 -19 11 -37t11 -37l-24 -20q-5 -4 -10.5 -8.5t-12.5 -9.5l-25 -19l-61 118q-20 -18 -42 -41.5t-40 -44.5t-29 -33z" />
    <glyph glyph-name="uni1ED3" unicode="&#x1ed3;" 
d="M181 -4q-66 0 -108 51t-42 154q0 57 14 120t39 124t58 113q53 84 122 137t145 53q60 0 92.5 -30.5t45.5 -78t13 -98.5q0 -119 -36.5 -221.5t-94.5 -173.5q-58 -73 -123.5 -111.5t-124.5 -38.5zM235 161q45 0 79.5 30t58.5 76.5t36 97.5t12 92q0 16 -3 34.5t-13 32.5
t-31 14q-46 0 -83 -33.5t-62 -84.5q-25 -52 -37 -102t-12 -91q0 -21 15 -43.5t40 -22.5zM355 952q-16 5 -32 8.5t-32 7.5q-27 6 -55 13.5t-47 13.5q4 19 9.5 46.5t9.5 52.5l12 61q13 -13 25.5 -26.5t25.5 -26.5q21 -23 45.5 -49.5t43.5 -47.5zM328 747q-13 11 -23 20.5
t-16 17.5q-4 5 -8 9t-7 8q14 20 28.5 40.5t29.5 39.5q25 33 54.5 69t55.5 62q20 -3 33.5 -4.5t21.5 -0.5q15 1 17 -1q4 -13 8.5 -29t9.5 -33l18 -66q5 -19 11 -37t11 -37l-24 -20q-5 -4 -10.5 -8.5t-12.5 -9.5l-25 -19l-61 118q-20 -18 -42 -41.5t-40 -44.5t-29 -33z" />
    <glyph glyph-name="uni1ED5" unicode="&#x1ed5;" 
d="M181 -4q-66 0 -108 51t-42 154q0 57 14 120t39 124t58 113q53 84 122 137t145 53q60 0 92.5 -30.5t45.5 -78t13 -98.5q0 -119 -36.5 -221.5t-94.5 -173.5q-58 -73 -123.5 -111.5t-124.5 -38.5zM235 161q45 0 79.5 30t58.5 76.5t36 97.5t12 92q0 16 -3 34.5t-13 32.5
t-31 14q-46 0 -83 -33.5t-62 -84.5q-25 -52 -37 -102t-12 -91q0 -21 15 -43.5t40 -22.5zM589 939q0 27 10.5 44.5t23.5 30.5q12 12 22.5 21t10.5 16q0 2 -3 5.5t-8 3.5q-10 0 -24 -10t-29 -22l-16 59q46 36 89 36q10 0 23 -2t20 -7q9 -6 17 -17.5t11 -37.5q0 -22 -10 -37
t-25 -26q-16 -11 -27.5 -22.5t-17.5 -30.5l-19 -2zM341 762q-13 11 -23 20.5t-16 17.5q-4 5 -8 9t-7 8q14 20 28.5 40.5t29.5 39.5q25 33 54.5 69t55.5 62q20 -3 33.5 -4.5t21.5 -0.5q15 1 17 -1q4 -13 8.5 -29t9.5 -33l18 -66q5 -19 11 -37t11 -37l-24 -20
q-5 -4 -10.5 -8.5t-12.5 -9.5l-25 -19l-61 118q-20 -18 -42 -41.5t-40 -44.5t-29 -33z" />
    <glyph glyph-name="uni1ED7" unicode="&#x1ed7;" 
d="M181 -4q-66 0 -108 51t-42 154q0 57 14 120t39 124t58 113q53 84 122 137t145 53q60 0 92.5 -30.5t45.5 -78t13 -98.5q0 -119 -36.5 -221.5t-94.5 -173.5q-58 -73 -123.5 -111.5t-124.5 -38.5zM235 161q45 0 79.5 30t58.5 76.5t36 97.5t12 92q0 16 -3 34.5t-13 32.5
t-31 14q-46 0 -83 -33.5t-62 -84.5q-25 -52 -37 -102t-12 -91q0 -21 15 -43.5t40 -22.5zM363 1067q-13 9 -31 23.5t-23 20.5l12.5 25.5t37.5 62.5q23 35 54.5 62t68.5 27q23 0 41.5 -13t32.5 -30t23.5 -30t13.5 -13q20 0 38 17.5t35 39t30 33.5q6 -4 11.5 -8.5t10.5 -8.5
t9.5 -7.5t8.5 -6.5t7.5 -6t6.5 -7q-21 -49 -48 -87q-20 -31 -54 -58.5t-72 -27.5q-24 0 -37 10.5t-22 23.5t-20 23.5t-32 10.5q-19 0 -37.5 -14t-35 -32t-29.5 -30zM333 755q-13 11 -23 20.5t-16 17.5q-4 5 -8 9t-7 8q14 20 28.5 40.5t29.5 39.5q25 33 54.5 69t55.5 62
q20 -3 33.5 -4.5t21.5 -0.5q15 1 17 -1q4 -13 8.5 -29t9.5 -33l18 -66q5 -19 11 -37t11 -37l-24 -20q-5 -4 -10.5 -8.5t-12.5 -9.5l-25 -19l-61 118q-20 -18 -42 -41.5t-40 -44.5t-29 -33z" />
    <glyph glyph-name="uni020D" unicode="&#x20d;" 
d="M181 -4q-66 0 -108 51t-42 154q0 57 14 120t39 124t58 113q53 84 122 137t145 53q60 0 92.5 -30.5t45.5 -78t13 -98.5q0 -119 -36.5 -221.5t-94.5 -173.5q-58 -73 -123.5 -111.5t-124.5 -38.5zM235 161q45 0 79.5 30t58.5 76.5t36 97.5t12 92q0 16 -3 34.5t-13 32.5
t-31 14q-46 0 -83 -33.5t-62 -84.5q-25 -52 -37 -102t-12 -91q0 -21 15 -43.5t40 -22.5zM365 761l-50 12t-48 12q-41 9 -84 20.5t-72 20.5q6 29 14 70.5t15 80.5l18 94q20 -21 39.5 -41.5t38.5 -40.5q33 -35 70.5 -75t65.5 -72zM654 736l-50 12t-48 12q-41 9 -84 20.5
t-72 20.5q6 29 14 70.5t15 80.5l18 94q20 -21 39.5 -41.5t38.5 -40.5q33 -35 70.5 -75t65.5 -72z" />
    <glyph glyph-name="odieresis" unicode="&#xf6;" 
d="M181 -4q-66 0 -108 51t-42 154q0 57 14 120t39 124t58 113q53 84 122 137t145 53q60 0 92.5 -30.5t45.5 -78t13 -98.5q0 -119 -36.5 -221.5t-94.5 -173.5q-58 -73 -123.5 -111.5t-124.5 -38.5zM235 161q45 0 79.5 30t58.5 76.5t36 97.5t12 92q0 16 -3 34.5t-13 32.5
t-31 14q-46 0 -83 -33.5t-62 -84.5q-25 -52 -37 -102t-12 -91q0 -21 15 -43.5t40 -22.5zM502 843q-40 0 -60 26.5t-20 59.5q0 35 23.5 62t67.5 27q48 0 72 -25t24 -56q0 -34 -27.5 -64t-79.5 -30zM270 843q-40 0 -60 26.5t-20 59.5q0 34 22.5 61.5t67.5 27.5q49 0 72.5 -25
t23.5 -56q0 -39 -29.5 -66.5t-76.5 -27.5z" />
    <glyph glyph-name="uni022B" unicode="&#x22b;" 
d="M181 -4q-66 0 -108 51t-42 154q0 57 14 120t39 124t58 113q53 84 122 137t145 53q60 0 92.5 -30.5t45.5 -78t13 -98.5q0 -119 -36.5 -221.5t-94.5 -173.5q-58 -73 -123.5 -111.5t-124.5 -38.5zM235 161q45 0 79.5 30t58.5 76.5t36 97.5t12 92q0 16 -3 34.5t-13 32.5
t-31 14q-46 0 -83 -33.5t-62 -84.5q-25 -52 -37 -102t-12 -91q0 -21 15 -43.5t40 -22.5zM502 843q-40 0 -60 26.5t-20 59.5q0 35 23.5 62t67.5 27q48 0 72 -25t24 -56q0 -34 -27.5 -64t-79.5 -30zM270 843q-40 0 -60 26.5t-20 59.5q0 34 22.5 61.5t67.5 27.5q49 0 72.5 -25
t23.5 -56q0 -39 -29.5 -66.5t-76.5 -27.5zM211 1062q-5 17 -6 45t-1 54v40v9.5t1 8.5l374 32l16 -162l-151 -9q-50 -3 -88.5 -6t-73 -5.5t-71.5 -6.5z" />
    <glyph glyph-name="uni0231" unicode="&#x231;" 
d="M181 -4q-66 0 -108 51t-42 154q0 57 14 120t39 124t58 113q53 84 122 137t145 53q60 0 92.5 -30.5t45.5 -78t13 -98.5q0 -119 -36.5 -221.5t-94.5 -173.5q-58 -73 -123.5 -111.5t-124.5 -38.5zM235 161q45 0 79.5 30t58.5 76.5t36 97.5t12 92q0 16 -3 34.5t-13 32.5
t-31 14q-46 0 -83 -33.5t-62 -84.5q-25 -52 -37 -102t-12 -91q0 -21 15 -43.5t40 -22.5zM390 797q-40 0 -60 26t-20 60q0 32 22 60.5t68 28.5q49 0 72.5 -25t23.5 -57q0 -35 -27.5 -64t-78.5 -29zM215 1016q-5 17 -6 45t-1 54v40v9.5t1 8.5l374 32l16 -162l-151 -9
q-50 -3 -88.5 -6t-73 -5.5t-71.5 -6.5z" />
    <glyph glyph-name="uni1ECD" unicode="&#x1ecd;" 
d="M181 -4q-66 0 -108 51t-42 154q0 57 14 120t39 124t58 113q53 84 122 137t145 53q60 0 92.5 -30.5t45.5 -78t13 -98.5q0 -119 -36.5 -221.5t-94.5 -173.5q-58 -73 -123.5 -111.5t-124.5 -38.5zM235 161q45 0 79.5 30t58.5 76.5t36 97.5t12 92q0 16 -3 34.5t-13 32.5
t-31 14q-46 0 -83 -33.5t-62 -84.5q-25 -52 -37 -102t-12 -91q0 -21 15 -43.5t40 -22.5zM134 -186q-40 0 -60 26.5t-20 59.5q0 35 22.5 62t67.5 27q49 0 72.5 -25t23.5 -56q0 -40 -30 -67t-76 -27z" />
    <glyph glyph-name="ograve" unicode="&#xf2;" 
d="M181 -4q-66 0 -108 51t-42 154q0 57 14 120t39 124t58 113q53 84 122 137t145 53q60 0 92.5 -30.5t45.5 -78t13 -98.5q0 -119 -36.5 -221.5t-94.5 -173.5q-58 -73 -123.5 -111.5t-124.5 -38.5zM235 161q45 0 79.5 30t58.5 76.5t36 97.5t12 92q0 16 -3 34.5t-13 32.5
t-31 14q-46 0 -83 -33.5t-62 -84.5q-25 -52 -37 -102t-12 -91q0 -21 15 -43.5t40 -22.5zM470 770l-50 12t-48 12q-41 9 -84 20.5t-72 20.5q6 29 14 70.5t15 80.5l18 94q20 -21 39.5 -41.5t38.5 -40.5q33 -35 70.5 -75t65.5 -72z" />
    <glyph glyph-name="uni1ECF" unicode="&#x1ecf;" 
d="M181 -4q-66 0 -108 51t-42 154q0 57 14 120t39 124t58 113q53 84 122 137t145 53q60 0 92.5 -30.5t45.5 -78t13 -98.5q0 -119 -36.5 -221.5t-94.5 -173.5q-58 -73 -123.5 -111.5t-124.5 -38.5zM235 161q45 0 79.5 30t58.5 76.5t36 97.5t12 92q0 16 -3 34.5t-13 32.5
t-31 14q-46 0 -83 -33.5t-62 -84.5q-25 -52 -37 -102t-12 -91q0 -21 15 -43.5t40 -22.5zM352 758q0 27 10.5 44.5t23.5 30.5q12 12 22.5 21t10.5 16q0 2 -3 5.5t-8 3.5q-10 0 -24 -10t-29 -22l-16 59q24 19 47 27.5t52 8.5q32 0 51.5 -14.5t19.5 -49.5q0 -22 -10 -37
t-25 -26q-16 -11 -27.5 -22.5t-17.5 -30.5l-19 -2z" />
    <glyph glyph-name="ohorn" unicode="&#x1a1;" 
d="M181 -4q-66 0 -108 51t-42 154q0 57 14 120t39 124t58 113q53 84 122 137t145 53q60 0 92.5 -30.5t45.5 -78t13 -98.5q0 -119 -36.5 -221.5t-94.5 -173.5q-58 -73 -123.5 -111.5t-124.5 -38.5zM235 161q45 0 79.5 30t58.5 76.5t36 97.5t12 92q0 16 -3 34.5t-13 32.5
t-31 14q-46 0 -83 -33.5t-62 -84.5q-25 -52 -37 -102t-12 -91q0 -21 15 -43.5t40 -22.5zM466 731q29 0 50.5 20t34.5 49t19.5 58t5.5 47q7 -5 13 -10l12 -10q5 -5 11 -10t11 -10l32 -30q3 -42 -12 -80t-45.5 -64t-77.5 -32z" />
    <glyph glyph-name="uni1EDB" unicode="&#x1edb;" 
d="M181 -4q-66 0 -108 51t-42 154q0 57 14 120t39 124t58 113q53 84 122 137t145 53q60 0 92.5 -30.5t45.5 -78t13 -98.5q0 -119 -36.5 -221.5t-94.5 -173.5q-58 -73 -123.5 -111.5t-124.5 -38.5zM235 161q45 0 79.5 30t58.5 76.5t36 97.5t12 92q0 16 -3 34.5t-13 32.5
t-31 14q-46 0 -83 -33.5t-62 -84.5q-25 -52 -37 -102t-12 -91q0 -21 15 -43.5t40 -22.5zM466 731q29 0 50.5 20t34.5 49t19.5 58t5.5 47q7 -5 13 -10l12 -10q5 -5 11 -10t11 -10l32 -30q3 -42 -12 -80t-45.5 -64t-77.5 -32zM273 765q-1 5 -1 10.5v9.5v18v16.5t1 16.5v34
q34 35 66 65.5t62 57.5t58 55t54 56q5 -68 6 -125q0 -29 2 -58.5t6 -60.5q-29 -12 -61 -24t-66 -24q-34 -13 -66 -24.5t-61 -22.5z" />
    <glyph glyph-name="uni1EE3" unicode="&#x1ee3;" 
d="M181 -4q-66 0 -108 51t-42 154q0 57 14 120t39 124t58 113q53 84 122 137t145 53q60 0 92.5 -30.5t45.5 -78t13 -98.5q0 -119 -36.5 -221.5t-94.5 -173.5q-58 -73 -123.5 -111.5t-124.5 -38.5zM235 161q45 0 79.5 30t58.5 76.5t36 97.5t12 92q0 16 -3 34.5t-13 32.5
t-31 14q-46 0 -83 -33.5t-62 -84.5q-25 -52 -37 -102t-12 -91q0 -21 15 -43.5t40 -22.5zM466 731q29 0 50.5 20t34.5 49t19.5 58t5.5 47q7 -5 13 -10l12 -10q5 -5 11 -10t11 -10l32 -30q3 -42 -12 -80t-45.5 -64t-77.5 -32zM134 -186q-40 0 -60 26.5t-20 59.5q0 35 22.5 62
t67.5 27q49 0 72.5 -25t23.5 -56q0 -40 -30 -67t-76 -27z" />
    <glyph glyph-name="uni1EDD" unicode="&#x1edd;" 
d="M181 -4q-66 0 -108 51t-42 154q0 57 14 120t39 124t58 113q53 84 122 137t145 53q60 0 92.5 -30.5t45.5 -78t13 -98.5q0 -119 -36.5 -221.5t-94.5 -173.5q-58 -73 -123.5 -111.5t-124.5 -38.5zM235 161q45 0 79.5 30t58.5 76.5t36 97.5t12 92q0 16 -3 34.5t-13 32.5
t-31 14q-46 0 -83 -33.5t-62 -84.5q-25 -52 -37 -102t-12 -91q0 -21 15 -43.5t40 -22.5zM466 731q29 0 50.5 20t34.5 49t19.5 58t5.5 47q7 -5 13 -10l12 -10q5 -5 11 -10t11 -10l32 -30q3 -42 -12 -80t-45.5 -64t-77.5 -32zM470 770l-50 12t-48 12q-41 9 -84 20.5t-72 20.5
q6 29 14 70.5t15 80.5l18 94q20 -21 39.5 -41.5t38.5 -40.5q33 -35 70.5 -75t65.5 -72z" />
    <glyph glyph-name="uni1EDF" unicode="&#x1edf;" 
d="M181 -4q-66 0 -108 51t-42 154q0 57 14 120t39 124t58 113q53 84 122 137t145 53q60 0 92.5 -30.5t45.5 -78t13 -98.5q0 -119 -36.5 -221.5t-94.5 -173.5q-58 -73 -123.5 -111.5t-124.5 -38.5zM235 161q45 0 79.5 30t58.5 76.5t36 97.5t12 92q0 16 -3 34.5t-13 32.5
t-31 14q-46 0 -83 -33.5t-62 -84.5q-25 -52 -37 -102t-12 -91q0 -21 15 -43.5t40 -22.5zM466 731q29 0 50.5 20t34.5 49t19.5 58t5.5 47q7 -5 13 -10l12 -10q5 -5 11 -10t11 -10l32 -30q3 -42 -12 -80t-45.5 -64t-77.5 -32zM352 758q0 27 10.5 44.5t23.5 30.5q12 12 22.5 21
t10.5 16q0 2 -3 5.5t-8 3.5q-10 0 -24 -10t-29 -22l-16 59q24 19 47 27.5t52 8.5q32 0 51.5 -14.5t19.5 -49.5q0 -22 -10 -37t-25 -26q-16 -11 -27.5 -22.5t-17.5 -30.5l-19 -2z" />
    </font>
</defs>
</svg>
